<?xml version="1.0" standalone="no"?>
<!DOCTYPE svg PUBLIC "-//W3C//DTD SVG 1.1//EN" "http://www.w3.org/Graphics/SVG/1.1/DTD/svg11.dtd" >
<svg xmlns="http://www.w3.org/2000/svg">
<metadata></metadata>
<defs>
<font id="museo_sans_500regular" horiz-adv-x="821" >
<font-face units-per-em="1000" ascent="750" descent="-250" />
<missing-glyph horiz-adv-x="257" />
<glyph unicode="&#xfb01;" horiz-adv-x="585" d="M40 428v78h63v17q0 48 14 83.5t34 55t48 31t49.5 15t44.5 3.5l37 -3v-83q-10 2 -25 2q-17 0 -32.5 -3.5t-33.5 -13.5t-29 -33t-11 -56v-15h310v-506h-97v428h-213v-428h-96v428h-63zM411 607v99h98v-99h-98z" />
<glyph unicode="&#xfb02;" horiz-adv-x="601" d="M40 421v78h63v24q0 48 14 83.5t34 55t48 31t49.5 15t44.5 3.5l37 -3v-83q-10 2 -25 2q-17 0 -32.5 -3.5t-33.5 -13.5t-29 -33t-11 -56v-22h120v-78h-120v-421h-96v421h-63zM406 138v568h97v-551q0 -42 14 -57t40 -15l17 1v-86q-15 -2 -32 -2q-136 0 -136 142z" />
<glyph unicode="&#xfb03;" horiz-adv-x="921" d="M40 428v78h63v17q0 48 14 83.5t34 55t48 31t49.5 15t44.5 3.5l37 -3v-83q-10 2 -25 2q-17 0 -32.5 -3.5t-33.5 -13.5t-29 -33t-11 -56v-15h240v17q0 48 14 83.5t34 55t48 31t49.5 15t44.5 3.5l37 -3v-83q-10 2 -25 2q-17 0 -32.5 -3.5t-33.5 -13.5t-29 -33t-11 -56v-15 h310v-506h-97v428h-213v-428h-96v428h-240v-428h-96v428h-63zM747 607v99h98v-99h-98z" />
<glyph unicode="&#xfb04;" horiz-adv-x="937" d="M40 428v78h63v17q0 48 14 83.5t34 55t48 31t49.5 15t44.5 3.5l37 -3v-83q-10 2 -25 2q-17 0 -32.5 -3.5t-33.5 -13.5t-29 -33t-11 -56v-15h240v17q0 48 14 83.5t34 55t48 31t49.5 15t44.5 3.5l37 -3v-83q-10 2 -25 2q-17 0 -32.5 -3.5t-33.5 -13.5t-29 -33t-11 -56v-15 h120v-78h-120v-428h-96v428h-240v-428h-96v428h-63zM742 138v568h97v-551q0 -42 14 -57t40 -15l17 1v-86q-15 -2 -32 -2q-136 0 -136 142z" />
<glyph horiz-adv-x="1000" />
<glyph horiz-adv-x="1000" />
<glyph unicode="&#xd;" horiz-adv-x="1000" />
<glyph unicode=" "  horiz-adv-x="257" />
<glyph unicode="&#x09;" horiz-adv-x="257" />
<glyph unicode="&#xa0;" horiz-adv-x="257" />
<glyph unicode="!" horiz-adv-x="318" d="M109 706h100l-6 -512h-87zM110 0v97h99v-97h-99z" />
<glyph unicode="&#x22;" horiz-adv-x="342" d="M63 530v188h76v-188h-76zM203 530v188h76v-188h-76z" />
<glyph unicode="#" horiz-adv-x="718" d="M44 191l12 74h131l29 168h-129l12 73h130l35 200h81l-35 -200h155l35 200h81l-35 -200h131l-13 -73h-130l-30 -168h130l-13 -74h-129l-34 -191h-81l33 191h-155l-33 -191h-81l33 191h-130zM268 265h155l30 168h-155z" />
<glyph unicode="$" horiz-adv-x="566" d="M54 81l56 75q3 -3 8.5 -8t24.5 -18.5t38.5 -23.5t49.5 -18t59 -8q52 0 87 28t35 76q0 40 -35.5 69.5t-86.5 51t-102 46.5t-86.5 68t-35.5 102q0 73 51.5 127.5t134.5 66.5v94h71v-93q50 -4 92.5 -21t60.5 -33l18 -15l-45 -82q-7 7 -20.5 17t-54 27t-80.5 17 q-56 0 -92 -30t-36 -73q0 -28 19 -50.5t49.5 -38.5t67.5 -31t74 -33.5t67.5 -41.5t49.5 -59t19 -82q0 -77 -51 -132t-138 -65v-92h-71v92q-36 4 -69.5 14.5t-56 23t-39.5 25t-25 20.5z" />
<glyph unicode="%" horiz-adv-x="761" d="M48 570q0 61 44 104.5t107 43.5t107.5 -43.5t44.5 -104.5t-44.5 -104.5t-107.5 -43.5t-107 43t-44 105zM63 0l540 706h94l-540 -706h-94zM125 570q0 -32 21.5 -53t52.5 -21t52.5 21t21.5 53q0 31 -21.5 53t-52.5 22t-52.5 -22t-21.5 -53zM410 136q0 61 44.5 104.5 t107.5 43.5q62 0 107 -43.5t45 -104.5t-45 -104.5t-107 -43.5q-64 0 -108 43t-44 105zM488 136q0 -32 21 -53t53 -21q31 0 52.5 21.5t21.5 52.5t-21.5 53t-52.5 22t-52.5 -22t-21.5 -53z" />
<glyph unicode="&#x26;" horiz-adv-x="684" d="M54 198q0 60 33.5 111t90.5 70v2q-4 1 -10 4t-22 15t-28.5 28t-22.5 45t-10 63q0 86 60.5 134t156.5 48q17 0 38.5 -3t34.5 -5l13 -3l-25 -79q-29 6 -53 6q-54 0 -89.5 -29t-35.5 -79q0 -19 5.5 -36.5t18.5 -35.5t40 -28.5t66 -10.5h131v96h97v-96h94v-86h-94v-94 q0 -117 -65 -182t-179 -65q-109 0 -177 60t-68 150zM155 203q0 -52 40 -88t104 -36q70 0 108.5 39.5t38.5 120.5v90h-135q-75 0 -115.5 -33t-40.5 -93z" />
<glyph unicode="'" horiz-adv-x="203" d="M63 530v188h77v-188h-77z" />
<glyph unicode="(" horiz-adv-x="302" d="M73 340q0 210 116 395h85q-113 -189 -113 -396q0 -229 113 -434h-85q-116 193 -116 435z" />
<glyph unicode=")" horiz-adv-x="302" d="M28 -95q113 205 113 434q0 207 -113 396h85q116 -185 116 -395q0 -242 -116 -435h-85z" />
<glyph unicode="*" horiz-adv-x="467" d="M36 530l26 84l133 -50l-7 142h91l-8 -142l134 50l27 -84l-137 -37v-2l88 -110l-71 -52l-77 118h-2l-78 -118l-72 52l89 110v2z" />
<glyph unicode="+" horiz-adv-x="683" d="M77 246v78h224v246h82v-246h223v-78h-223v-246h-82v246h-224z" />
<glyph unicode="," horiz-adv-x="255" d="M27 -101l62 206h99l-84 -206h-77z" />
<glyph unicode="-" horiz-adv-x="472" d="M90 242v86h292v-86h-292z" />
<glyph unicode="." horiz-adv-x="254" d="M76 0v103h102v-103h-102z" />
<glyph unicode="/" horiz-adv-x="404" d="M36 -42l254 786h86l-254 -786h-86z" />
<glyph unicode="0" horiz-adv-x="625" d="M63 354q0 364 249 364q250 0 250 -364q0 -366 -250 -366q-249 0 -249 366zM164 354q0 -275 148 -275q149 0 149 275q0 273 -149 273q-148 0 -148 -273z" />
<glyph unicode="1" horiz-adv-x="489" d="M51 542l169 164h88v-620h154v-86h-406v86h156v456l1 44h-2q-8 -16 -34 -41l-66 -65z" />
<glyph unicode="2" horiz-adv-x="572" d="M55 54q0 59 25.5 109.5t64 83.5t83.5 66t83.5 59.5t64 62t25.5 73.5q0 52 -35.5 84.5t-91.5 32.5q-26 0 -50.5 -9.5t-40.5 -22.5t-28.5 -26t-18.5 -23l-5 -9l-73 49q3 5 8 14.5t24.5 32.5t43 40.5t63 32t84.5 14.5q98 0 160.5 -56t62.5 -147q0 -47 -18.5 -88t-48.5 -70.5 t-66 -56.5t-72 -51t-66 -48t-49 -53.5t-19 -61.5h350v-86h-455q-5 32 -5 54z" />
<glyph unicode="3" horiz-adv-x="567" d="M40 84l54 75q8 -9 22 -21.5t59 -34t90 -21.5q60 0 102 36.5t42 92.5q0 62 -47 96t-117 34h-49l-23 53l154 181l44 46v2q-21 -3 -60 -3h-239v86h422v-63l-192 -221q82 -9 144.5 -61t62.5 -146t-67 -160.5t-173 -66.5q-64 0 -121 24t-82 48z" />
<glyph unicode="4" horiz-adv-x="606" d="M31 189v62l326 455h113v-433h96v-84h-96v-189h-97v189h-342zM140 273h233v257l4 70h-2q-16 -33 -35 -58l-200 -267v-2z" />
<glyph unicode="5" horiz-adv-x="563" d="M48 86l55 72q2 -3 6.5 -8t19.5 -18.5t31.5 -23.5t43 -18t54.5 -8q64 0 109.5 40t45.5 103t-46 104t-115 41q-31 0 -60.5 -9t-43.5 -17l-15 -9l-57 21l35 350h356v-86h-270l-17 -149l-5 -37h2q39 22 91 22q109 0 177.5 -66.5t68.5 -163.5q0 -102 -71.5 -170t-178.5 -68 q-41 0 -78 10t-61 24.5t-42.5 29t-26.5 24.5z" />
<glyph unicode="6" horiz-adv-x="599" d="M59 321q0 70 19.5 138.5t57 127.5t100 95t141.5 36q37 0 71 -7t50 -15l16 -7l-32 -85q-45 23 -101 23q-91 0 -145 -69.5t-67 -167.5h2q22 30 65.5 48.5t90.5 18.5q99 0 161 -66.5t62 -166.5q0 -104 -64 -170t-163 -66q-115 0 -189.5 92t-74.5 241zM163 274 q0 -72 47 -133.5t112 -61.5q59 0 94.5 41t35.5 104q0 66 -39.5 107.5t-105.5 41.5q-59 0 -101.5 -30t-42.5 -69z" />
<glyph unicode="7" horiz-adv-x="529" d="M35 620v86h472v-68l-319 -638h-102l275 556q9 18 19 34t16 24l6 7v2q-16 -3 -52 -3h-315z" />
<glyph unicode="8" horiz-adv-x="607" d="M57 204q0 37 14 71.5t36.5 59t36 36.5t26.5 21q-79 57 -79 141q0 76 57 130.5t163 54.5q99 0 160.5 -51.5t61.5 -137.5q0 -91 -84 -184q96 -59 96 -150q0 -85 -67.5 -146t-174.5 -61t-176.5 60.5t-69.5 155.5zM158 210q0 -59 43 -96t102 -37q57 0 98.5 34t41.5 87 q0 18 -9 34.5t-21 28t-35 25t-40.5 21.5t-47.5 21.5t-47 21.5q-85 -59 -85 -140zM189 531q0 -14 5 -27t10.5 -23t19.5 -21t23 -17t29 -16t30 -14.5t34.5 -14.5t33.5 -14q62 62 62 139q0 48 -35 77t-91 29q-57 0 -89 -28t-32 -70z" />
<glyph unicode="9" horiz-adv-x="599" d="M49 482q0 104 64 170t163 66q114 0 189 -92t75 -241q0 -70 -19.5 -138.5t-57 -127.5t-100 -95t-141.5 -36q-37 0 -71.5 7t-50.5 15l-15 7l32 86q45 -24 101 -24q91 0 145 69.5t67 167.5h-2q-21 -30 -65 -48t-91 -18q-99 0 -161 66t-62 166zM147 482q0 -66 39 -107.5 t106 -41.5q59 0 101.5 30.5t42.5 68.5q0 72 -47 133.5t-112 61.5q-60 0 -95 -41t-35 -104z" />
<glyph unicode=":" horiz-adv-x="292" d="M95 0v103h102v-103h-102zM95 403v103h102v-103h-102z" />
<glyph unicode=";" horiz-adv-x="293" d="M47 -101l53 206h100l-75 -206h-78zM101 403v103h102v-103h-102z" />
<glyph unicode="&#x3c;" horiz-adv-x="558" d="M33 252v66l466 208v-89l-358 -151v-2l358 -151v-89z" />
<glyph unicode="=" horiz-adv-x="669" d="M96 151v78h477v-78h-477zM96 340v78h477v-78h-477z" />
<glyph unicode="&#x3e;" horiz-adv-x="558" d="M59 44v89l357 151v2l-357 151v89l466 -208v-66z" />
<glyph unicode="?" horiz-adv-x="489" d="M32 656q7 7 21 17.5t60 28.5t94 18q87 0 148 -51t61 -132q0 -46 -18 -82.5t-44 -61t-52.5 -47t-44.5 -50.5t-18 -61v-41h-95v47q0 42 17.5 76.5t42.5 58.5t50 46t42.5 49.5t17.5 58.5q0 42 -32.5 70.5t-81.5 28.5q-28 0 -56.5 -10.5t-43.5 -20.5l-14 -11zM142 0v97h99 v-97h-99z" />
<glyph unicode="@" d="M59 241q0 155 106 262.5t259 107.5q135 0 197.5 -57.5t62.5 -145.5v-283h72v-73h-273q-91 0 -149 55.5t-58 133.5q0 77 57.5 132t149.5 55h108q-2 45 -44.5 74t-117.5 29q-115 0 -194 -85.5t-79 -204.5q0 -121 79.5 -204t204.5 -83v-79q-166 0 -273.5 105.5t-107.5 260.5 zM374 242q0 -49 33 -83t83 -34h101v236h-99q-52 0 -85 -34.5t-33 -84.5z" />
<glyph unicode="A" horiz-adv-x="628" d="M8 0l254 706h104l254 -706h-103l-71 203h-266l-70 -203h-102zM206 285h214l-78 224l-27 100h-2q-16 -64 -28 -100z" />
<glyph unicode="B" horiz-adv-x="634" d="M96 0v706h247q91 0 148 -48t57 -132q0 -51 -23.5 -91t-64.5 -61v-2q54 -16 85 -63t31 -108q0 -96 -64.5 -148.5t-162.5 -52.5h-253zM195 86h159q56 0 88.5 32.5t32.5 87.5q0 54 -33.5 87.5t-88.5 33.5h-158v-241zM195 409h148q47 0 75.5 30t28.5 77t-28 75.5t-78 28.5 h-146v-211z" />
<glyph unicode="C" horiz-adv-x="722" d="M48 357q0 154 102.5 257.5t256.5 103.5q48 0 92 -9.5t72.5 -23t50.5 -27.5t32 -24l10 -9l-49 -74q-9 9 -26 21.5t-70.5 34t-107.5 21.5q-116 0 -188.5 -77.5t-72.5 -192.5q0 -116 73.5 -197.5t188.5 -81.5q59 0 113.5 23t79.5 46l25 23l53 -71q-4 -5 -11.5 -12.5 t-34 -26.5t-56 -34t-76 -27t-96.5 -12q-157 0 -259 106t-102 263z" />
<glyph unicode="D" horiz-adv-x="740" d="M96 0v706h234q164 0 261 -93.5t97 -258.5q0 -166 -97 -260t-261 -94h-234zM195 86h128q121 0 192 70t71 198q0 127 -71 196.5t-192 69.5h-128v-534z" />
<glyph unicode="E" horiz-adv-x="573" d="M96 0v706h410v-86h-311v-221h253v-86h-253v-227h328v-86h-427z" />
<glyph unicode="F" horiz-adv-x="521" d="M96 0v706h389v-86h-290v-232h247v-86h-247v-302h-99z" />
<glyph unicode="G" horiz-adv-x="760" d="M49 354q0 154 103 259t257 105q47 0 91 -9t73 -21t51 -24.5t32 -21.5l10 -9l-50 -74q-9 8 -25.5 19.5t-68.5 30.5t-105 19q-121 0 -193.5 -77.5t-72.5 -194.5q0 -122 74 -199.5t186 -77.5q54 0 104 22t73 44l23 22v102h-115v86h205v-355h-87v44l1 30h-2l-9 -9t-27 -21 t-44 -26t-60.5 -20.5t-76.5 -9.5q-145 0 -246 103.5t-101 262.5z" />
<glyph unicode="H" horiz-adv-x="756" d="M96 0v706h99v-310h366v310h99v-706h-99v310h-366v-310h-99z" />
<glyph unicode="I" horiz-adv-x="291" d="M96 0v706h99v-706h-99z" />
<glyph unicode="J" horiz-adv-x="537" d="M30 203v35h98v-30q0 -67 32.5 -98t79.5 -31t78.5 30t31.5 95v416h-178v86h277v-503q0 -107 -62 -161t-148 -54t-147.5 54.5t-61.5 160.5z" />
<glyph unicode="K" horiz-adv-x="623" d="M96 0v706h99v-297h105l178 297h109l-205 -335v-2l218 -369h-112l-188 324h-105v-324h-99z" />
<glyph unicode="L" horiz-adv-x="529" d="M96 0v706h99v-620h316v-86h-415z" />
<glyph unicode="M" horiz-adv-x="866" d="M74 0l57 706h104l162 -382l35 -95h2q19 56 35 95l162 382h104l57 -706h-98l-35 445l-1 104h-2q-21 -65 -38 -104l-141 -318h-88l-140 318l-38 106h-2q1 -63 -2 -106l-34 -445h-99z" />
<glyph unicode="N" horiz-adv-x="757" d="M96 0v706h98l314 -459q12 -17 26.5 -42.5t23.5 -42.5l9 -17h2q-7 63 -7 102v459h99v-706h-97l-315 458q-12 17 -26.5 43t-23.5 43l-9 17h-2q7 -63 7 -103v-458h-99z" />
<glyph unicode="O" d="M48 358q0 152 105 256t258 104t257.5 -104t104.5 -256q0 -156 -104.5 -263t-257.5 -107t-258 107t-105 263zM150 358q0 -118 76 -198.5t185 -80.5t184.5 80.5t75.5 198.5q0 115 -75.5 192.5t-184.5 77.5t-185 -77.5t-76 -192.5z" />
<glyph unicode="P" horiz-adv-x="607" d="M96 0v706h258q98 0 160 -60.5t62 -160.5t-62.5 -162t-159.5 -62h-159v-261h-99zM195 347h143q64 0 100.5 37t36.5 101q0 63 -36.5 99t-99.5 36h-144v-273z" />
<glyph unicode="Q" horiz-adv-x="833" d="M49 357q0 153 104.5 257t257.5 104q154 0 258.5 -104t104.5 -257q0 -132 -83 -233l84 -80l-58 -62l-82 82q-95 -76 -224 -76q-153 0 -257.5 107t-104.5 262zM151 357q0 -118 75 -198t185 -80q88 0 153 52l-83 81l58 62l81 -82q52 72 52 165q0 116 -75 193.5t-186 77.5 q-110 0 -185 -77.5t-75 -193.5z" />
<glyph unicode="R" horiz-adv-x="641" d="M96 0v706h216q89 0 132 -16q55 -20 87 -71t32 -120q0 -68 -34.5 -120t-92.5 -71v-2q8 -9 21 -32l150 -274h-112l-149 281h-151v-281h-99zM195 367h142q58 0 91.5 34.5t33.5 93.5q0 78 -56 109q-30 16 -97 16h-114v-253z" />
<glyph unicode="S" horiz-adv-x="546" d="M42 81l56 75q3 -3 8.5 -8t24.5 -18.5t38.5 -23.5t49.5 -18t59 -8q52 0 87 28t35 76q0 31 -19 55t-49 41t-66.5 32.5t-73 33.5t-66.5 40t-49 56.5t-19 78.5q0 83 64.5 140t163.5 57q58 0 108 -18t71 -36l21 -17l-45 -82q-7 7 -20.5 17t-54 27t-80.5 17q-55 0 -91.5 -30 t-36.5 -73q0 -40 35 -68t85.5 -48t101 -44t85.5 -68.5t35 -107.5q0 -85 -61 -142t-163 -57q-42 0 -81.5 9.5t-66 23t-47 27.5t-29.5 24z" />
<glyph unicode="T" horiz-adv-x="593" d="M5 620v86h583v-86h-242v-620h-99v620h-242z" />
<glyph unicode="U" horiz-adv-x="728" d="M86 250v456h99v-456q0 -80 48 -125.5t130 -45.5q83 0 131.5 45.5t48.5 127.5v454h99v-456q0 -117 -77 -189.5t-201 -72.5t-201 72.5t-77 189.5z" />
<glyph unicode="V" horiz-adv-x="632" d="M6 706h107l175 -499l27 -97h2q14 59 27 97l177 499h105l-260 -706h-99z" />
<glyph unicode="W" horiz-adv-x="948" d="M33 706h102l125 -518l13 -75h2q5 36 15 75l138 518h88l138 -518l15 -75h2q3 37 13 75l130 518h102l-185 -706h-115l-122 458l-21 100h-2q-9 -55 -21 -100l-122 -458h-115z" />
<glyph unicode="X" horiz-adv-x="612" d="M22 0l223 364l-209 342h114l111 -191l45 -84h2q20 45 43 84l111 191h114l-209 -342l223 -364h-112l-128 217l-45 81h-2q-19 -42 -42 -81l-128 -217h-111z" />
<glyph unicode="Y" horiz-adv-x="588" d="M8 706h112l131 -232l43 -89h2q21 49 43 89l129 232h112l-236 -407v-299h-99v299z" />
<glyph unicode="Z" horiz-adv-x="607" d="M41 0v66l340 490q12 18 24.5 34t19.5 24l7 7v2q-19 -3 -53 -3h-320v86h496v-65l-340 -491q-12 -17 -24.5 -33t-19.5 -23l-7 -8v-2q19 2 53 2h342v-86h-518z" />
<glyph unicode="[" horiz-adv-x="301" d="M101 -95v830h165v-73h-80v-683h80v-74h-165z" />
<glyph unicode="\" horiz-adv-x="404" d="M28 744h86l254 -786h-86z" />
<glyph unicode="]" horiz-adv-x="302" d="M35 -21h81v683h-81v73h166v-830h-166v74z" />
<glyph unicode="^" horiz-adv-x="613" d="M69 247l200 459h63l199 -459h-87l-144 352l-143 -352h-88z" />
<glyph unicode="_" horiz-adv-x="594" d="M28 0h538v-78h-538v78z" />
<glyph unicode="`" horiz-adv-x="499" d="M161 882h104l73 -127h-82z" />
<glyph unicode="a" horiz-adv-x="528" d="M35 142q0 174 305 174h22v9q0 111 -111 111q-35 0 -70 -12t-53 -24l-18 -13l-40 71q8 7 23.5 17t64.5 26.5t101 16.5q96 0 148 -51t52 -147v-320h-90v48l2 40h-2l-5.5 -11t-17 -24t-30 -30t-46 -24t-63.5 -11q-70 0 -121 41t-51 113zM133 147q0 -33 25 -57t70 -24 q58 0 96.5 50.5t38.5 110.5v16h-25q-205 0 -205 -96z" />
<glyph unicode="b" horiz-adv-x="600" d="M76 0v706h97v-231l-2 -43h2q2 3 5.5 9t17.5 21t30.5 26t46 20.5t62.5 9.5q101 0 161.5 -73t60.5 -192t-64.5 -192t-165.5 -73q-32 0 -60 9t-45 22t-30 25.5t-18 21.5l-6 9h-2q2 -16 2 -38v-37h-92zM170 251q0 -73 37.5 -126.5t105.5 -53.5q62 0 104 48.5t42 132.5 q0 82 -39.5 131.5t-103.5 49.5q-62 0 -104 -45.5t-42 -136.5z" />
<glyph unicode="c" horiz-adv-x="547" d="M40 253q0 113 76.5 189t194.5 76q56 0 103.5 -18.5t67.5 -37.5l19 -18l-46 -68q-6 6 -17.5 16t-48 26t-74.5 16q-76 0 -126 -51t-50 -129t50.5 -130t128.5 -52q42 0 81 17t57 34l18 17l39 -71l-8.5 -8.5t-24.5 -19.5t-41 -24.5t-56.5 -19.5t-71.5 -9q-119 0 -195 75 t-76 190z" />
<glyph unicode="d" horiz-adv-x="601" d="M43 253q0 120 64 192.5t165 72.5q33 0 61 -8t44.5 -20t29 -24t17.5 -20l4 -8h2q-2 15 -2 34v234h97v-706h-92v48l1 34h-2q-2 -4 -5.5 -10t-17 -22.5t-31 -29t-47.5 -22.5t-65 -10q-102 0 -162.5 73t-60.5 192zM142 253q0 -82 39.5 -131.5t103.5 -49.5q62 0 104 45.5 t42 136.5q0 73 -37.5 126.5t-105.5 53.5q-62 0 -104 -48.5t-42 -132.5z" />
<glyph unicode="e" horiz-adv-x="555" d="M41 253q0 119 71.5 192t181.5 73q103 0 161 -67t58 -170l-3 -42h-369q4 -80 53.5 -123.5t120.5 -43.5q39 0 76.5 15t55.5 29l18 15l40 -71q-8 -8 -24 -20t-67 -32t-105 -20q-118 0 -193 75.5t-75 189.5zM144 312h270q-2 63 -36.5 96t-85.5 33q-57 0 -97.5 -34t-50.5 -95z " />
<glyph unicode="f" horiz-adv-x="336" d="M40 421v78h63v24q0 48 14 83.5t34 55t48 31t49.5 15t44.5 3.5l37 -3v-83q-10 2 -25 2q-17 0 -32.5 -3.5t-33.5 -13.5t-29 -33t-11 -56v-22h120v-78h-120v-421h-96v421h-63z" />
<glyph unicode="g" horiz-adv-x="593" d="M43 265q0 112 59 182.5t162 70.5q34 0 63 -7.5t46 -19t29 -22.5t16 -19l5 -7h2q-1 7 -1 16v47h93v-485q0 -60 -21.5 -106t-58.5 -72.5t-81 -39.5t-94 -13q-91 0 -173 42l32 76q63 -34 139 -34q72 0 116 34.5t44 107.5v37l1 32h-2q-47 -79 -150 -79t-164.5 73.5 t-61.5 185.5zM141 267q0 -80 39.5 -128.5t107.5 -48.5q59 0 96.5 41t37.5 133q0 170 -143 170q-65 0 -101.5 -44.5t-36.5 -122.5z" />
<glyph unicode="h" horiz-adv-x="603" d="M76 0v706h97v-259l-2 -42h2q20 44 69 78.5t118 34.5q174 0 174 -194v-324h-97v302q0 61 -20 94t-76 33t-100 -35t-60 -90q-8 -27 -8 -67v-237h-97z" />
<glyph unicode="i" horiz-adv-x="249" d="M75 607v99h98v-99h-98zM76 0v506h97v-506h-97z" />
<glyph unicode="j" horiz-adv-x="248" d="M-55 -121q9 -1 22 -1q17 0 33 4t34.5 14t30 34t11.5 59v517h96v-523q0 -59 -20.5 -100t-53.5 -58.5t-61 -24t-58 -6.5l-34 2v83zM75 607v99h98v-99h-98z" />
<glyph unicode="k" horiz-adv-x="526" d="M76 0v706h97v-386h71l138 186h110l-168 -223v-2l187 -281h-113l-152 238h-73v-238h-97z" />
<glyph unicode="l" horiz-adv-x="265" d="M70 138v568h97v-551q0 -42 14 -57t40 -15l17 1v-86q-15 -2 -32 -2q-136 0 -136 142z" />
<glyph unicode="m" horiz-adv-x="914" d="M76 0v506h94v-67l-2 -37h2q19 47 68 81.5t106 34.5q126 0 152 -115h2q22 48 71.5 81.5t108.5 33.5q167 0 167 -194v-324h-97v303q0 61 -18.5 94t-71.5 33q-51 0 -89.5 -37t-52.5 -92q-7 -29 -7 -70v-231h-97v303q0 60 -17.5 93.5t-70.5 33.5t-91.5 -38t-53.5 -95 q-6 -24 -6 -66v-231h-97z" />
<glyph unicode="n" horiz-adv-x="603" d="M76 0v506h94v-67l-2 -37h2q20 43 68 79.5t122 36.5q174 0 174 -194v-324h-97v302q0 61 -20 94t-76 33q-57 0 -100.5 -34.5t-59.5 -89.5q-8 -27 -8 -68v-237h-97z" />
<glyph unicode="o" horiz-adv-x="624" d="M39 254q0 114 79 189t194 75t194 -75t79 -189t-79.5 -190t-193.5 -76t-193.5 76t-79.5 190zM138 254q0 -78 51 -130t123 -52q73 0 123.5 51.5t50.5 130.5q0 78 -50.5 129t-123.5 51q-72 0 -123 -51t-51 -129z" />
<glyph unicode="p" horiz-adv-x="600" d="M76 -200v706h89v-43l-2 -37h2q2 4 5.5 10t18 22t32 28t48 22t66.5 10q101 0 161.5 -73t60.5 -192t-64.5 -192t-164.5 -73q-31 0 -58.5 8.5t-44.5 21t-29.5 24.5t-17.5 20l-5 9h-2q2 -18 2 -44v-227h-97zM170 251q0 -73 38.5 -126.5t104.5 -53.5q62 0 104 48.5t42 132.5 q0 82 -39.5 131.5t-103.5 49.5q-62 0 -104 -45.5t-42 -136.5z" />
<glyph unicode="q" horiz-adv-x="601" d="M43 253q0 120 64 192.5t165 72.5q33 0 61.5 -9t45.5 -21t30 -24.5t18 -21.5l5 -9h2q-1 15 -1 35v38h92v-706h-97v231l2 44h-2q-2 -4 -5.5 -9.5t-17 -20.5t-30.5 -26.5t-46 -21t-63 -9.5q-102 0 -162.5 73t-60.5 192zM142 253q0 -82 39.5 -131.5t103.5 -49.5 q62 0 104 45.5t42 136.5q0 73 -37.5 126.5t-105.5 53.5q-62 0 -104 -48.5t-42 -132.5z" />
<glyph unicode="r" horiz-adv-x="375" d="M76 0v506h94v-88l-2 -38h2q18 58 60.5 95t99.5 37l25 -2v-96q-13 3 -28 3q-47 0 -86 -32t-56 -87q-12 -39 -12 -91v-207h-97z" />
<glyph unicode="s" horiz-adv-x="448" d="M35 62l47 69q6 -7 18 -16.5t50 -26t77 -16.5q34 0 59 17t25 46q0 25 -27 44t-65 33.5t-76 32t-65 50.5t-27 79q0 67 52 105.5t131 38.5q49 0 90 -14t57 -28l16 -14l-39 -73q-5 5 -14.5 12.5t-42 20t-68.5 12.5q-35 0 -59 -15.5t-24 -46.5q0 -25 27 -43t65 -32.5t76 -32 t65 -50.5t27 -79q0 -64 -50.5 -105.5t-132.5 -41.5q-55 0 -103 18.5t-68 37.5z" />
<glyph unicode="t" horiz-adv-x="358" d="M31 421v78h69v146h94v-146h122v-78h-122v-225q0 -29 8 -50.5t19.5 -33.5t27 -19t28 -9t25.5 -2l23 2v-86q-14 -2 -34 -2q-24 0 -46 3t-50 15t-48.5 31.5t-35 55.5t-14.5 84v236h-66z" />
<glyph unicode="u" horiz-adv-x="598" d="M69 182v324h97v-302q0 -61 19.5 -93.5t75.5 -32.5q74 0 119 56t45 135v237h97v-506h-94v67l2 37h-2q-19 -44 -68.5 -80t-117.5 -36q-173 0 -173 194z" />
<glyph unicode="v" horiz-adv-x="502" d="M7 506h103l123 -342q4 -12 8 -29.5t7 -28.5l2 -11h2l2 11q3 11 7.5 28.5t8.5 29.5l123 342h102l-187 -506h-112z" />
<glyph unicode="w" horiz-adv-x="814" d="M17 506h103l105 -355q3 -11 6.5 -25t4.5 -22l2 -7h2q5 28 13 54l110 354h89l109 -354l14 -54h2q4 28 12 54l106 355h102l-163 -506h-107l-105 325l-14 55h-2q-6 -29 -14 -55l-104 -325h-108z" />
<glyph unicode="x" horiz-adv-x="508" d="M22 0l172 260l-163 246h111l94 -154l17 -30h2q9 17 17 30l94 154h111l-163 -246l172 -260h-110l-106 169l-15 28h-2q-8 -16 -15 -28l-106 -169h-110z" />
<glyph unicode="y" horiz-adv-x="510" d="M2 506h109l127 -331l19 -61h2q8 34 17 60l123 332h105l-237 -597q-23 -57 -66.5 -88t-97.5 -31q-25 0 -49.5 8t-36.5 16l-12 7l34 74q28 -21 59 -21q60 0 91 74l25 58z" />
<glyph unicode="z" horiz-adv-x="517" d="M39 0v56l255 320l42 47v2q-16 -2 -49 -2h-237v83h417v-56l-255 -321l-43 -46v-2q17 2 50 2h257v-83h-437z" />
<glyph unicode="{" horiz-adv-x="350" d="M49 282v86q3 0 9 1t20.5 8t26 18t20.5 33t9 51v84q0 45 12.5 78.5t30 51t42 28.5t42 13.5t35.5 2.5l23 -1v-74h-14q-13 0 -24.5 -3.5t-27 -13t-25 -32t-9.5 -56.5v-103q0 -28 -8.5 -51t-20 -36.5t-23.5 -23t-21 -13.5l-8 -3v-2q3 -1 8.5 -3t19.5 -12t24.5 -23t19.5 -36.5 t9 -52.5v-115q0 -34 9.5 -56.5t25 -32t27 -13t24.5 -3.5h14v-74q-9 -2 -23 -2q-18 0 -35.5 2.5t-42 13.5t-42 28.5t-30 51.5t-12.5 79v96q0 29 -9 50.5t-21 32t-24.5 17t-21.5 7.5z" />
<glyph unicode="|" horiz-adv-x="283" d="M99 -159v951h85v-951h-85z" />
<glyph unicode="}" horiz-adv-x="350" d="M31 -22h14q13 0 24.5 3.5t27 13t25 32t9.5 56.5v115q0 46 20.5 77.5t40.5 40.5l20 9v2q-3 1 -8.5 3.5t-19.5 12.5t-24.5 23t-19.5 36.5t-9 51.5v103q0 34 -9.5 56.5t-25 32t-27 13t-24.5 3.5h-14v74q9 1 23 1q18 0 35.5 -2.5t42 -13.5t42 -28.5t30 -51t12.5 -78.5v-84 q0 -29 9 -51t21 -33t24.5 -17.5t21.5 -7.5l9 -2v-86q-3 0 -9 -1t-20.5 -8t-26 -17.5t-20.5 -32t-9 -50.5v-96q0 -45 -12.5 -79t-30 -51.5t-42 -28.5t-42 -13.5t-35.5 -2.5l-23 2v74z" />
<glyph unicode="~" horiz-adv-x="608" d="M67 204q0 85 36.5 127t103.5 42q35 0 63.5 -15.5t43.5 -33.5t37 -33.5t47 -15.5q36 0 51.5 28t15.5 66h79q0 -169 -139 -169q-35 0 -63.5 15t-43.5 33.5t-37.5 33.5t-47.5 15q-35 0 -51 -28t-16 -65h-79z" />
<glyph unicode="&#xa1;" horiz-adv-x="289" d="M94 -200l7 512h87l6 -512h-100zM94 409v97h99v-97h-99z" />
<glyph unicode="&#xa2;" horiz-adv-x="576" d="M53 353q0 111 57 189.5t154 91.5v84h71v-84q65 -10 113.5 -50.5t74.5 -104.5l-88 -34q-44 99 -133 99q-70 0 -110 -53.5t-40 -137.5q0 -86 39 -138t111 -52q90 0 133 99l88 -35q-27 -61 -74.5 -104t-113.5 -50v-86h-71v86q-97 13 -154 91.5t-57 188.5z" />
<glyph unicode="&#xa3;" horiz-adv-x="591" d="M56 0v86h61v233h-44v70h44v136q0 83 61.5 138t155.5 55q45 0 86.5 -16t61.5 -32l19 -16l-57 -69q-48 43 -109 43q-54 0 -86 -30.5t-32 -76.5v-132h184v-70h-184v-233h325v-86h-486z" />
<glyph unicode="&#xa5;" horiz-adv-x="607" d="M28 706h113l118 -220l43 -102h2q21 55 43 102l119 220h113l-166 -296h102v-63h-135l-27 -48v-37h162v-63h-162v-199h-100v199h-163v63h163v37l-27 48h-136v63h103z" />
<glyph unicode="&#xa7;" horiz-adv-x="442" d="M48 -11l44 67q41 -37 97 -37q46 0 76 27.5t30 77.5q0 20 -6 45l-66 376h79l70 -390q5 -27 5 -45q0 -76 -51 -124t-137 -48q-39 0 -74 12.5t-51 25.5zM63 547q0 75 51 123t138 48q38 0 73.5 -13t51.5 -25l16 -13l-46 -64q-40 34 -95 34q-47 0 -77 -26t-30 -75q0 -18 6 -40 l68 -385h-80l-70 390q-6 23 -6 46z" />
<glyph unicode="&#xa8;" horiz-adv-x="499" d="M126 781v101h80v-101h-80zM293 781v101h80v-101h-80z" />
<glyph unicode="&#xa9;" d="M54 353q0 152 103.5 258.5t251.5 106.5q149 0 253.5 -106.5t104.5 -258.5t-104.5 -258.5t-253.5 -106.5q-148 0 -251.5 106.5t-103.5 258.5zM127 353q0 -125 81.5 -211t200.5 -86q121 0 203 86t82 211t-82 211t-203 86q-119 0 -200.5 -86t-81.5 -211zM219 352 q0 82 54.5 141t142.5 59q32 0 60.5 -10t46.5 -24.5t31.5 -29.5t19.5 -25l5 -10l-61 -33q-4 7 -11.5 17.5t-33 28t-54.5 17.5q-57 0 -90.5 -38.5t-33.5 -92.5q0 -56 33 -93.5t91 -37.5q29 0 54 16t35 31l10 16l61 -33q-2 -4 -6 -10.5t-18.5 -24t-31.5 -30.5t-46 -23.5 t-61 -10.5q-88 0 -142.5 58.5t-54.5 141.5z" />
<glyph unicode="&#xaa;" horiz-adv-x="422" d="M73 265v57h275v-57h-275zM74 479q0 110 188 110h10v6q0 63 -64 63q-19 0 -40 -7t-32 -14l-11 -7l-29 49q45 37 121 37q62 0 94.5 -32.5t32.5 -93.5v-201h-68v46h-2q-3 -6 -9.5 -15t-30 -23.5t-52.5 -14.5q-43 0 -75.5 26t-32.5 71zM146 484q0 -18 13.5 -30.5t37.5 -12.5 q33 0 54 27.5t21 61.5v8h-12q-114 0 -114 -54z" />
<glyph unicode="&#xab;" horiz-adv-x="556" d="M44 282l164 206h97l-164 -206l164 -205h-97zM245 282l164 206h97l-164 -206l164 -205h-97z" />
<glyph unicode="&#xac;" horiz-adv-x="614" d="M60 340v78h477v-267h-81v189h-396z" />
<glyph unicode="&#xad;" horiz-adv-x="431" d="M70 242v86h292v-86h-292z" />
<glyph unicode="&#xae;" d="M54 353q0 152 103.5 258.5t251.5 106.5q149 0 253.5 -106.5t104.5 -258.5t-104.5 -258.5t-253.5 -106.5q-148 0 -251.5 106.5t-103.5 258.5zM127 353q0 -125 81.5 -211t200.5 -86q121 0 203 86t82 211t-82 211t-203 86q-119 0 -200.5 -86t-81.5 -211zM287 166v377h145 q54 0 86.5 -31.5t32.5 -83.5q0 -40 -21 -66.5t-48 -33.5v-2q4 -4 13 -21l72 -139h-78l-70 146h-61v-146h-71zM358 364h60q28 0 44.5 17t16.5 47q0 29 -16.5 45t-44.5 16h-60v-125z" />
<glyph unicode="&#xaf;" horiz-adv-x="499" d="M122 784v70h255v-70h-255z" />
<glyph unicode="&#xb0;" horiz-adv-x="389" d="M43 570q0 61 44 104.5t107 43.5t107.5 -43.5t44.5 -104.5t-44.5 -104.5t-107.5 -43.5t-107 43t-44 105zM120 570q0 -31 21.5 -52.5t52.5 -21.5t52.5 21.5t21.5 52.5t-21.5 53t-52.5 22t-52.5 -22t-21.5 -53z" />
<glyph unicode="&#xb1;" horiz-adv-x="681" d="M76 246v78h224v246h82v-246h223v-78h-223v-246h-82v246h-224zM92 -95h497v-78h-497v78z" />
<glyph unicode="&#xb2;" horiz-adv-x="389" d="M47 459q0 47 22 83.5t53 59t62 42t53 42.5t22 50q0 28 -20.5 46.5t-51.5 18.5q-22 0 -43 -12t-31 -24l-10 -12l-49 45q2 3 5.5 8t16 17t27.5 21.5t38.5 17.5t49.5 8q62 0 103 -36.5t41 -94.5q0 -40 -20.5 -72t-50.5 -52.5t-60 -38.5t-51.5 -39.5t-23.5 -47.5h213v-66 h-292q0 4 -1 11.5t-1.5 13.5t-0.5 11z" />
<glyph unicode="&#xb3;" horiz-adv-x="389" d="M40 479l42 53q4 -6 12 -14t34.5 -22t55.5 -14q33 0 58 22t25 54q0 33 -26.5 52t-62.5 19h-34l-16 38l89 103l24 24v2q-19 -3 -36 -3h-141v67h271v-48l-109 -126q50 -7 83.5 -39.5t33.5 -88.5q0 -59 -44.5 -102t-111.5 -43q-45 0 -81.5 16.5t-51.5 32.5z" />
<glyph unicode="&#xb4;" horiz-adv-x="499" d="M161 755l73 127h104l-96 -127h-81z" />
<glyph unicode="&#xb6;" horiz-adv-x="590" d="M43 474q0 98 69.5 165t166.5 67h272v-86h-196v-670h-75v291q-97 0 -167 67.5t-70 165.5zM417 -50v613h74v-613h-74z" />
<glyph unicode="&#xb7;" horiz-adv-x="275" d="M88 239v103h99v-103h-99z" />
<glyph unicode="&#xb8;" horiz-adv-x="499" d="M171 -142q20 -7 42 -7q48 0 48 31t-53 31l-18 -1l29 111l49 -10v-8l-12 -55q32 -4 52 -23t20 -50q0 -43 -29.5 -63.5t-72.5 -20.5q-14 0 -28 1.5t-20 3.5l-7 2v58z" />
<glyph unicode="&#xb9;" horiz-adv-x="389" d="M65 757l106 103h68v-371h91v-66h-259v66h93v249l2 26h-2q-4 -9 -18 -22l-35 -34z" />
<glyph unicode="&#xba;" horiz-adv-x="467" d="M62 552q0 71 49.5 118t120.5 47q72 0 122 -47t50 -118q0 -73 -49.5 -120.5t-121.5 -47.5t-121.5 47.5t-49.5 120.5zM78 265v57h312v-57h-312zM134 552q0 -45 28.5 -74.5t70.5 -29.5q41 0 69.5 29.5t28.5 74.5q0 44 -28.5 72.5t-69.5 28.5q-42 0 -70.5 -28.5t-28.5 -72.5z " />
<glyph unicode="&#xbb;" horiz-adv-x="557" d="M50 77l164 205l-164 206h97l164 -206l-164 -205h-97zM252 77l164 205l-164 206h97l164 -206l-164 -205h-97z" />
<glyph unicode="&#xbc;" horiz-adv-x="967" d="M53 603l106 103h68v-371h91v-66h-259v66h93v249l2 26h-2q-4 -9 -18 -22l-35 -34zM261 0l336 706h75l-336 -706h-75zM570 107v50l201 280h81v-264h61v-66h-61v-107h-74v107h-208zM652 173h126v123l3 58h-2q-14 -27 -29 -48l-98 -131v-2z" />
<glyph unicode="&#xbd;" horiz-adv-x="961" d="M53 603l106 103h68v-371h91v-66h-259v66h93v249l2 26h-2q-4 -9 -18 -22l-35 -34zM263 0l336 706h75l-336 -706h-75zM600 36q0 47 22 83.5t53 59t62 42t53 42.5t22 50q0 28 -20.5 46.5t-51.5 18.5q-22 0 -43 -12t-31 -24l-10 -12l-49 45q2 3 5.5 8t16 17t27.5 21.5 t38.5 17.5t49.5 8q62 0 103 -36.5t41 -94.5q0 -40 -20.5 -72t-50.5 -52.5t-60 -38.5t-51.5 -39.5t-23.5 -47.5h213v-66h-292q0 4 -1 11.5t-1.5 13.5t-0.5 11z" />
<glyph unicode="&#xbe;" horiz-adv-x="979" d="M40 325l42 53q4 -6 12 -14t34.5 -22t55.5 -14q33 0 58 22t25 54q0 33 -26.5 52t-62.5 19h-34l-16 38l89 103l24 24v2q-19 -3 -36 -3h-141v67h271v-48l-109 -126q50 -7 83.5 -39.5t33.5 -88.5q0 -59 -44.5 -102t-111.5 -43q-45 0 -81.5 16.5t-51.5 32.5zM273 0l336 706h75 l-336 -706h-75zM582 107v50l201 280h81v-264h61v-66h-61v-107h-74v107h-208zM664 173h126v123l3 58h-2q-14 -27 -29 -48l-98 -131v-2z" />
<glyph unicode="&#xbf;" horiz-adv-x="450" d="M39 -28q0 46 18 82.5t44 61t52.5 47t44.5 51t18 61.5v37h94v-43q0 -42 -17.5 -77t-42 -58.5t-49.5 -45.5t-42.5 -49.5t-17.5 -58.5q0 -42 32.5 -71t81.5 -29q28 0 56.5 11t42.5 21l15 11l53 -69q-3 -3 -8 -7t-22 -15t-36 -19.5t-48 -15.5t-60 -7q-87 0 -148 50.5 t-61 131.5zM214 409v97h99v-97h-99z" />
<glyph unicode="&#xc0;" horiz-adv-x="628" d="M8 0l254 706h104l254 -706h-103l-71 203h-266l-70 -203h-102zM180 882h104l73 -127h-82zM206 285h214l-78 224l-27 100h-2q-16 -64 -28 -100z" />
<glyph unicode="&#xc1;" horiz-adv-x="628" d="M8 0l254 706h104l254 -706h-103l-71 203h-266l-70 -203h-102zM206 285h214l-78 224l-27 100h-2q-16 -64 -28 -100zM270 755l73 127h104l-96 -127h-81z" />
<glyph unicode="&#xc2;" horiz-adv-x="628" d="M8 0l254 706h104l254 -706h-103l-71 203h-266l-70 -203h-102zM175 755l88 127h101l88 -127h-85l-53 80h-2l-52 -80h-85zM206 285h214l-78 224l-27 100h-2q-16 -64 -28 -100z" />
<glyph unicode="&#xc3;" horiz-adv-x="628" d="M8 0l254 706h104l254 -706h-103l-71 203h-266l-70 -203h-102zM146 756q0 127 102 127q29 0 51 -17t40 -34t35 -17q20 0 29.5 19.5t9.5 45.5h70q0 -127 -102 -127q-29 0 -51 17t-40 34t-35 17q-39 0 -39 -65h-70zM206 285h214l-78 224l-27 100h-2q-16 -64 -28 -100z" />
<glyph unicode="&#xc4;" horiz-adv-x="628" d="M8 0l254 706h104l254 -706h-103l-71 203h-266l-70 -203h-102zM191 781v101h80v-101h-80zM206 285h214l-78 224l-27 100h-2q-16 -64 -28 -100zM358 781v101h80v-101h-80z" />
<glyph unicode="&#xc5;" horiz-adv-x="628" d="M8 0l254 706h104l254 -706h-103l-71 203h-266l-70 -203h-102zM206 285h214l-78 224l-27 100h-2q-16 -64 -28 -100zM229 817q0 34 25 54.5t60 20.5t60 -20.5t25 -54.5q0 -33 -25 -53.5t-60 -20.5t-60 20.5t-25 53.5zM281 817q0 -14 9 -23.5t24 -9.5q14 0 23.5 9.5 t9.5 23.5q0 16 -9.5 25.5t-23.5 9.5q-15 0 -24 -9.5t-9 -25.5z" />
<glyph unicode="&#xc6;" horiz-adv-x="878" d="M4 0l292 706h516v-86h-312v-221h254v-86h-254v-227h329v-86h-427v314h-169l-126 -314h-103zM266 396h136v224h-46z" />
<glyph unicode="&#xc7;" horiz-adv-x="724" d="M50 357q0 154 102.5 257.5t256.5 103.5q48 0 92 -9.5t72.5 -23t50.5 -27.5t32 -24l10 -9l-49 -74q-9 9 -26 21.5t-70.5 34t-107.5 21.5q-116 0 -188.5 -77.5t-72.5 -192.5q0 -116 73.5 -197.5t188.5 -81.5q59 0 113.5 23t79.5 46l25 23l53 -71q-4 -4 -11 -11.5t-32 -25.5 t-53 -32.5t-72 -27.5t-91 -15l-8 -38q32 -4 52 -23t20 -50q0 -43 -29.5 -63.5t-72.5 -20.5q-14 0 -28 1.5t-20 3.5l-7 2v58q20 -7 42 -7q48 0 48 31t-53 31l-18 -1l20 78q-142 13 -232 116.5t-90 250.5z" />
<glyph unicode="&#xc8;" horiz-adv-x="573" d="M96 0v706h410v-86h-311v-221h253v-86h-253v-227h328v-86h-427zM178 882h104l73 -127h-82z" />
<glyph unicode="&#xc9;" horiz-adv-x="573" d="M96 0v706h410v-86h-311v-221h253v-86h-253v-227h328v-86h-427zM269 755l73 127h104l-96 -127h-81z" />
<glyph unicode="&#xca;" horiz-adv-x="573" d="M96 0v706h410v-86h-311v-221h253v-86h-253v-227h328v-86h-427zM174 755l88 127h101l88 -127h-85l-53 80h-2l-52 -80h-85z" />
<glyph unicode="&#xcb;" horiz-adv-x="573" d="M96 0v706h410v-86h-311v-221h253v-86h-253v-227h328v-86h-427zM189 781v101h80v-101h-80zM356 781v101h80v-101h-80z" />
<glyph unicode="&#xcc;" horiz-adv-x="291" d="M12 882h104l73 -127h-82zM96 0v706h99v-706h-99z" />
<glyph unicode="&#xcd;" horiz-adv-x="291" d="M96 0v706h99v-706h-99zM103 755l73 127h104l-96 -127h-81z" />
<glyph unicode="&#xce;" horiz-adv-x="291" d="M7 755l88 127h101l88 -127h-85l-53 80h-2l-52 -80h-85zM96 0v706h99v-706h-99z" />
<glyph unicode="&#xcf;" horiz-adv-x="291" d="M23 781v101h80v-101h-80zM96 0v706h99v-706h-99zM190 781v101h80v-101h-80z" />
<glyph unicode="&#xd0;" horiz-adv-x="759" d="M56 312v82h59v312h234q164 0 261 -93.5t97 -258.5q0 -166 -97 -260t-261 -94h-234v312h-59zM214 86h128q121 0 192 70t71 198q0 127 -71 196.5t-192 69.5h-128v-226h149v-82h-149v-226z" />
<glyph unicode="&#xd1;" horiz-adv-x="757" d="M96 0v706h98l314 -459q12 -17 26.5 -42.5t23.5 -42.5l9 -17h2q-7 63 -7 102v459h99v-706h-97l-315 458q-12 17 -26.5 43t-23.5 43l-9 17h-2q7 -63 7 -103v-458h-99zM210 756q0 127 102 127q29 0 51 -17t40 -34t35 -17q20 0 29.5 19.5t9.5 45.5h70q0 -127 -102 -127 q-29 0 -51 17t-40 34t-35 17q-39 0 -39 -65h-70z" />
<glyph unicode="&#xd2;" d="M48 358q0 152 105 256t258 104t257.5 -104t104.5 -256q0 -156 -104.5 -263t-257.5 -107t-258 107t-105 263zM150 358q0 -118 76 -198.5t185 -80.5t184.5 80.5t75.5 198.5q0 115 -75.5 192.5t-184.5 77.5t-185 -77.5t-76 -192.5zM277 882h104l73 -127h-82z" />
<glyph unicode="&#xd3;" d="M48 358q0 152 105 256t258 104t257.5 -104t104.5 -256q0 -156 -104.5 -263t-257.5 -107t-258 107t-105 263zM150 358q0 -118 76 -198.5t185 -80.5t184.5 80.5t75.5 198.5q0 115 -75.5 192.5t-184.5 77.5t-185 -77.5t-76 -192.5zM368 755l73 127h104l-96 -127h-81z" />
<glyph unicode="&#xd4;" d="M48 358q0 152 105 256t258 104t257.5 -104t104.5 -256q0 -156 -104.5 -263t-257.5 -107t-258 107t-105 263zM150 358q0 -118 76 -198.5t185 -80.5t184.5 80.5t75.5 198.5q0 115 -75.5 192.5t-184.5 77.5t-185 -77.5t-76 -192.5zM272 755l88 127h101l88 -127h-85l-53 80 h-2l-52 -80h-85z" />
<glyph unicode="&#xd5;" d="M48 358q0 152 105 256t258 104t257.5 -104t104.5 -256q0 -156 -104.5 -263t-257.5 -107t-258 107t-105 263zM150 358q0 -118 76 -198.5t185 -80.5t184.5 80.5t75.5 198.5q0 115 -75.5 192.5t-184.5 77.5t-185 -77.5t-76 -192.5zM243 756q0 127 102 127q29 0 51 -17 t40 -34t35 -17q20 0 29.5 19.5t9.5 45.5h70q0 -127 -102 -127q-29 0 -51 17t-40 34t-35 17q-39 0 -39 -65h-70z" />
<glyph unicode="&#xd6;" d="M48 358q0 152 105 256t258 104t257.5 -104t104.5 -256q0 -156 -104.5 -263t-257.5 -107t-258 107t-105 263zM150 358q0 -118 76 -198.5t185 -80.5t184.5 80.5t75.5 198.5q0 115 -75.5 192.5t-184.5 77.5t-185 -77.5t-76 -192.5zM288 781v101h80v-101h-80zM455 781v101h80 v-101h-80z" />
<glyph unicode="&#xd7;" horiz-adv-x="645" d="M63 55l206 230l-206 230l55 55l204 -228l205 228l55 -55l-207 -230l207 -230l-55 -55l-205 227l-204 -227z" />
<glyph unicode="&#xd8;" horiz-adv-x="824" d="M50 358q0 152 105 256t258 104q100 0 185 -49l46 63l49 -34l-46 -64q60 -50 94 -121.5t34 -154.5q0 -156 -104.5 -263t-257.5 -107q-106 0 -192 53l-47 -66l-50 34l49 69q-58 51 -90.5 123.5t-32.5 156.5zM152 358q0 -120 78 -201l313 435q-59 36 -130 36 q-109 0 -185 -77.5t-76 -192.5zM277 118q61 -39 136 -39q109 0 184.5 80.5t75.5 198.5q0 121 -82 198z" />
<glyph unicode="&#xd9;" horiz-adv-x="728" d="M86 250v456h99v-456q0 -80 48 -125.5t130 -45.5q83 0 131.5 45.5t48.5 127.5v454h99v-456q0 -117 -77 -189.5t-201 -72.5t-201 72.5t-77 189.5zM230 882h104l73 -127h-82z" />
<glyph unicode="&#xda;" horiz-adv-x="728" d="M86 250v456h99v-456q0 -80 48 -125.5t130 -45.5q83 0 131.5 45.5t48.5 127.5v454h99v-456q0 -117 -77 -189.5t-201 -72.5t-201 72.5t-77 189.5zM320 755l73 127h104l-96 -127h-81z" />
<glyph unicode="&#xdb;" horiz-adv-x="728" d="M86 250v456h99v-456q0 -80 48 -125.5t130 -45.5q83 0 131.5 45.5t48.5 127.5v454h99v-456q0 -117 -77 -189.5t-201 -72.5t-201 72.5t-77 189.5zM225 755l88 127h101l88 -127h-85l-53 80h-2l-52 -80h-85z" />
<glyph unicode="&#xdc;" horiz-adv-x="728" d="M86 250v456h99v-456q0 -80 48 -125.5t130 -45.5q83 0 131.5 45.5t48.5 127.5v454h99v-456q0 -117 -77 -189.5t-201 -72.5t-201 72.5t-77 189.5zM241 781v101h80v-101h-80zM408 781v101h80v-101h-80z" />
<glyph unicode="&#xdd;" horiz-adv-x="588" d="M8 706h112l131 -232l43 -89h2q21 49 43 89l129 232h112l-236 -407v-299h-99v299zM251 755l73 127h104l-96 -127h-81z" />
<glyph unicode="&#xde;" horiz-adv-x="607" d="M96 0v706h98v-120h160q98 0 159.5 -60.5t61.5 -160.5t-62 -162t-160 -62h-159v-141h-98zM194 227h144q64 0 100.5 37t36.5 101q0 63 -36.5 99t-99.5 36h-145v-273z" />
<glyph unicode="&#xdf;" horiz-adv-x="588" d="M76 0v530q0 88 64 138t152 50q82 0 136 -46.5t54 -114.5q0 -33 -15.5 -61.5t-34.5 -45.5t-34.5 -38t-15.5 -41q0 -17 18.5 -35t45 -36t52.5 -38.5t44.5 -51t18.5 -65.5q0 -72 -50 -112t-121 -40q-41 0 -76.5 7.5t-50.5 14.5l-15 7v86q56 -31 130 -31q36 0 60 18t24 54 q0 27 -28 53.5t-61.5 46t-61.5 51.5t-28 68q0 28 16 54t34.5 43.5t34.5 42t16 48.5q0 32 -25 55t-70 23q-48 0 -82 -29t-34 -82v-523h-97z" />
<glyph unicode="&#xe0;" horiz-adv-x="528" d="M35 142q0 174 305 174h22v9q0 111 -111 111q-35 0 -70 -12t-53 -24l-18 -13l-40 71q8 7 23.5 17t64.5 26.5t101 16.5q96 0 148 -51t52 -147v-320h-90v48l2 40h-2l-5.5 -11t-17 -24t-30 -30t-46 -24t-63.5 -11q-70 0 -121 41t-51 113zM129 706h104l73 -127h-82zM133 147 q0 -33 25 -57t70 -24q58 0 96.5 50.5t38.5 110.5v16h-25q-205 0 -205 -96z" />
<glyph unicode="&#xe1;" horiz-adv-x="528" d="M35 142q0 174 305 174h22v9q0 111 -111 111q-35 0 -70 -12t-53 -24l-18 -13l-40 71q8 7 23.5 17t64.5 26.5t101 16.5q96 0 148 -51t52 -147v-320h-90v48l2 40h-2l-5.5 -11t-17 -24t-30 -30t-46 -24t-63.5 -11q-70 0 -121 41t-51 113zM133 147q0 -33 25 -57t70 -24 q58 0 96.5 50.5t38.5 110.5v16h-25q-205 0 -205 -96zM218 579l73 127h104l-96 -127h-81z" />
<glyph unicode="&#xe2;" horiz-adv-x="528" d="M35 142q0 174 305 174h22v9q0 111 -111 111q-35 0 -70 -12t-53 -24l-18 -13l-40 71q8 7 23.5 17t64.5 26.5t101 16.5q96 0 148 -51t52 -147v-320h-90v48l2 40h-2l-5.5 -11t-17 -24t-30 -30t-46 -24t-63.5 -11q-70 0 -121 41t-51 113zM123 579l88 127h101l88 -127h-85 l-53 80h-2l-52 -80h-85zM133 147q0 -33 25 -57t70 -24q58 0 96.5 50.5t38.5 110.5v16h-25q-205 0 -205 -96z" />
<glyph unicode="&#xe3;" horiz-adv-x="528" d="M35 142q0 174 305 174h22v9q0 111 -111 111q-35 0 -70 -12t-53 -24l-18 -13l-40 71q8 7 23.5 17t64.5 26.5t101 16.5q96 0 148 -51t52 -147v-320h-90v48l2 40h-2l-5.5 -11t-17 -24t-30 -30t-46 -24t-63.5 -11q-70 0 -121 41t-51 113zM94 580q0 127 102 127q29 0 51 -17 t40 -34t35 -17q20 0 29.5 19.5t9.5 45.5h70q0 -127 -102 -127q-29 0 -51 17t-40 34t-35 17q-39 0 -39 -65h-70zM133 147q0 -33 25 -57t70 -24q58 0 96.5 50.5t38.5 110.5v16h-25q-205 0 -205 -96z" />
<glyph unicode="&#xe4;" horiz-adv-x="528" d="M35 142q0 174 305 174h22v9q0 111 -111 111q-35 0 -70 -12t-53 -24l-18 -13l-40 71q8 7 23.5 17t64.5 26.5t101 16.5q96 0 148 -51t52 -147v-320h-90v48l2 40h-2l-5.5 -11t-17 -24t-30 -30t-46 -24t-63.5 -11q-70 0 -121 41t-51 113zM133 147q0 -33 25 -57t70 -24 q58 0 96.5 50.5t38.5 110.5v16h-25q-205 0 -205 -96zM139 605v101h80v-101h-80zM306 605v101h80v-101h-80z" />
<glyph unicode="&#xe5;" horiz-adv-x="528" d="M35 142q0 174 305 174h22v9q0 111 -111 111q-35 0 -70 -12t-53 -24l-18 -13l-40 71q8 7 23.5 17t64.5 26.5t101 16.5q96 0 148 -51t52 -147v-320h-90v48l2 40h-2l-5.5 -11t-17 -24t-30 -30t-46 -24t-63.5 -11q-70 0 -121 41t-51 113zM133 147q0 -33 25 -57t70 -24 q58 0 96.5 50.5t38.5 110.5v16h-25q-205 0 -205 -96zM177 641q0 34 25 54.5t60 20.5t60 -20.5t25 -54.5q0 -33 -25 -53.5t-60 -20.5t-60 20.5t-25 53.5zM229 641q0 -14 9 -23.5t24 -9.5q14 0 23.5 9.5t9.5 23.5q0 16 -9.5 25.5t-23.5 9.5q-15 0 -24 -9.5t-9 -25.5z" />
<glyph unicode="&#xe6;" horiz-adv-x="864" d="M36 142q0 45 22 78.5t53.5 51t76 28.5t78.5 13.5t72 2.5h25v9q0 111 -114 111q-34 0 -68.5 -12t-52.5 -24l-18 -13l-39 71q3 2 8.5 6.5t23.5 14.5t38 18t51.5 14.5t63.5 6.5q127 0 168 -89h2q60 89 185 89q99 0 155 -69.5t56 -176.5l-2 -29h-363q4 -83 50.5 -127 t117.5 -44q39 0 76.5 14.5t55.5 29.5l18 14l40 -70q-8 -8 -24 -20t-67 -32t-104 -20q-75 0 -131 33.5t-87 93.5h-2q-5 -14 -16 -31.5t-33 -41t-59 -39t-83 -15.5q-73 0 -123 41.5t-50 112.5zM135 147q0 -34 24.5 -57.5t70.5 -23.5q59 0 96.5 50.5t37.5 111.5v15h-47 q-182 0 -182 -96zM461 316h263q-2 61 -36 93t-84 32q-57 0 -95 -31.5t-48 -93.5z" />
<glyph unicode="&#xe7;" horiz-adv-x="548" d="M41 253q0 113 76.5 189t194.5 76q56 0 103.5 -18.5t66.5 -37.5l20 -18l-46 -68q-6 6 -17.5 16t-48 26t-74.5 16q-76 0 -126 -51t-50 -129t50.5 -130t128.5 -52q42 0 81 17t57 34l18 17l39 -71l-8 -8t-23 -18.5t-38.5 -24t-53 -20t-67.5 -10.5l-8 -38q32 -4 52 -23t20 -50 q0 -43 -29.5 -63.5t-72.5 -20.5q-14 0 -28 1.5t-20 3.5l-7 2v58q20 -7 42 -7q48 0 48 31t-53 31l-18 -1l20 79q-102 14 -165.5 86t-63.5 176z" />
<glyph unicode="&#xe8;" horiz-adv-x="555" d="M41 253q0 119 71.5 192t181.5 73q103 0 161 -67t58 -170l-3 -42h-369q4 -80 53.5 -123.5t120.5 -43.5q39 0 76.5 15t55.5 29l18 15l40 -71q-8 -8 -24 -20t-67 -32t-105 -20q-118 0 -193 75.5t-75 189.5zM144 312h270q-2 63 -36.5 96t-85.5 33q-57 0 -97.5 -34t-50.5 -95z M161 706h104l73 -127h-82z" />
<glyph unicode="&#xe9;" horiz-adv-x="555" d="M41 253q0 119 71.5 192t181.5 73q103 0 161 -67t58 -170l-3 -42h-369q4 -80 53.5 -123.5t120.5 -43.5q39 0 76.5 15t55.5 29l18 15l40 -71q-8 -8 -24 -20t-67 -32t-105 -20q-118 0 -193 75.5t-75 189.5zM144 312h270q-2 63 -36.5 96t-85.5 33q-57 0 -97.5 -34t-50.5 -95z M251 579l73 127h104l-96 -127h-81z" />
<glyph unicode="&#xea;" horiz-adv-x="555" d="M41 253q0 119 71.5 192t181.5 73q103 0 161 -67t58 -170l-3 -42h-369q4 -80 53.5 -123.5t120.5 -43.5q39 0 76.5 15t55.5 29l18 15l40 -71q-8 -8 -24 -20t-67 -32t-105 -20q-118 0 -193 75.5t-75 189.5zM144 312h270q-2 63 -36.5 96t-85.5 33q-57 0 -97.5 -34t-50.5 -95z M155 579l88 127h101l88 -127h-85l-53 80h-2l-52 -80h-85z" />
<glyph unicode="&#xeb;" horiz-adv-x="555" d="M41 253q0 119 71.5 192t181.5 73q103 0 161 -67t58 -170l-3 -42h-369q4 -80 53.5 -123.5t120.5 -43.5q39 0 76.5 15t55.5 29l18 15l40 -71q-8 -8 -24 -20t-67 -32t-105 -20q-118 0 -193 75.5t-75 189.5zM144 312h270q-2 63 -36.5 96t-85.5 33q-57 0 -97.5 -34t-50.5 -95z M171 605v101h80v-101h-80zM338 605v101h80v-101h-80z" />
<glyph unicode="&#xec;" horiz-adv-x="249" d="M-9 706h104l73 -127h-82zM76 0v506h97v-506h-97z" />
<glyph unicode="&#xed;" horiz-adv-x="249" d="M76 0v506h97v-506h-97zM82 579l73 127h104l-96 -127h-81z" />
<glyph unicode="&#xee;" horiz-adv-x="249" d="M-13 579l88 127h101l88 -127h-85l-53 80h-2l-52 -80h-85zM76 0v506h97v-506h-97z" />
<glyph unicode="&#xef;" horiz-adv-x="249" d="M2 605v101h80v-101h-80zM76 0v506h97v-506h-97zM169 605v101h80v-101h-80z" />
<glyph unicode="&#xf0;" horiz-adv-x="589" d="M43 235q0 94 63.5 162.5t173.5 68.5q36 0 66.5 -10.5t43.5 -21.5l13 -10h2q-30 80 -109 133l-181 -80l-10 62l124 55q-61 31 -129 46l27 79q116 -26 207 -80l139 61l9 -61l-92 -42q144 -120 144 -322q0 -53 -14.5 -102t-43.5 -91.5t-80 -68t-116 -25.5q-109 0 -173 73.5 t-64 173.5zM141 233q0 -66 37.5 -113.5t103.5 -47.5q39 0 69.5 16.5t48 44.5t26.5 59.5t9 65.5q0 57 -38.5 93.5t-102.5 36.5q-73 0 -113 -45.5t-40 -109.5z" />
<glyph unicode="&#xf1;" horiz-adv-x="603" d="M76 0v506h94v-67l-2 -37h2q20 43 68 79.5t122 36.5q174 0 174 -194v-324h-97v302q0 61 -20 94t-76 33q-57 0 -100.5 -34.5t-59.5 -89.5q-8 -27 -8 -68v-237h-97zM145 580q0 127 102 127q29 0 51 -17t40 -34t35 -17q20 0 29.5 19.5t9.5 45.5h70q0 -127 -102 -127 q-29 0 -51 17t-40 34t-35 17q-39 0 -39 -65h-70z" />
<glyph unicode="&#xf2;" horiz-adv-x="624" d="M39 254q0 114 79 189t194 75t194 -75t79 -189t-79.5 -190t-193.5 -76t-193.5 76t-79.5 190zM138 254q0 -78 51 -130t123 -52q73 0 123.5 51.5t50.5 130.5q0 78 -50.5 129t-123.5 51q-72 0 -123 -51t-51 -129zM178 706h104l73 -127h-82z" />
<glyph unicode="&#xf3;" horiz-adv-x="624" d="M39 254q0 114 79 189t194 75t194 -75t79 -189t-79.5 -190t-193.5 -76t-193.5 76t-79.5 190zM138 254q0 -78 51 -130t123 -52q73 0 123.5 51.5t50.5 130.5q0 78 -50.5 129t-123.5 51q-72 0 -123 -51t-51 -129zM269 579l73 127h104l-96 -127h-81z" />
<glyph unicode="&#xf4;" horiz-adv-x="624" d="M39 254q0 114 79 189t194 75t194 -75t79 -189t-79.5 -190t-193.5 -76t-193.5 76t-79.5 190zM138 254q0 -78 51 -130t123 -52q73 0 123.5 51.5t50.5 130.5q0 78 -50.5 129t-123.5 51q-72 0 -123 -51t-51 -129zM174 579l88 127h101l88 -127h-85l-53 80h-2l-52 -80h-85z" />
<glyph unicode="&#xf5;" horiz-adv-x="624" d="M39 254q0 114 79 189t194 75t194 -75t79 -189t-79.5 -190t-193.5 -76t-193.5 76t-79.5 190zM138 254q0 -78 51 -130t123 -52q73 0 123.5 51.5t50.5 130.5q0 78 -50.5 129t-123.5 51q-72 0 -123 -51t-51 -129zM144 580q0 127 102 127q29 0 51 -17t40 -34t35 -17 q20 0 29.5 19.5t9.5 45.5h70q0 -127 -102 -127q-29 0 -51 17t-40 34t-35 17q-39 0 -39 -65h-70z" />
<glyph unicode="&#xf6;" horiz-adv-x="624" d="M39 254q0 114 79 189t194 75t194 -75t79 -189t-79.5 -190t-193.5 -76t-193.5 76t-79.5 190zM138 254q0 -78 51 -130t123 -52q73 0 123.5 51.5t50.5 130.5q0 78 -50.5 129t-123.5 51q-72 0 -123 -51t-51 -129zM189 605v101h80v-101h-80zM356 605v101h80v-101h-80z" />
<glyph unicode="&#xf7;" horiz-adv-x="635" d="M65 246v78h505v-78h-505zM270 44v91h94v-91h-94zM270 435v91h94v-91h-94z" />
<glyph unicode="&#xf8;" horiz-adv-x="624" d="M39 254q0 114 79 189t194 75q72 0 135 -33l40 55l47 -34l-39 -54q90 -77 90 -198q0 -114 -79.5 -190t-193.5 -76q-67 0 -128 29l-39 -55l-48 35l37 52q-95 77 -95 205zM138 254q0 -78 50 -130l208 289q-40 21 -84 21q-72 0 -123 -51t-51 -129zM236 89q36 -17 76 -17 q73 0 123.5 51.5t50.5 130.5q0 72 -45 122z" />
<glyph unicode="&#xf9;" horiz-adv-x="598" d="M69 182v324h97v-302q0 -61 19.5 -93.5t75.5 -32.5q74 0 119 56t45 135v237h97v-506h-94v67l2 37h-2q-19 -44 -68.5 -80t-117.5 -36q-173 0 -173 194zM162 706h104l73 -127h-82z" />
<glyph unicode="&#xfa;" horiz-adv-x="598" d="M69 182v324h97v-302q0 -61 19.5 -93.5t75.5 -32.5q74 0 119 56t45 135v237h97v-506h-94v67l2 37h-2q-19 -44 -68.5 -80t-117.5 -36q-173 0 -173 194zM252 579l73 127h104l-96 -127h-81z" />
<glyph unicode="&#xfb;" horiz-adv-x="598" d="M69 182v324h97v-302q0 -61 19.5 -93.5t75.5 -32.5q74 0 119 56t45 135v237h97v-506h-94v67l2 37h-2q-19 -44 -68.5 -80t-117.5 -36q-173 0 -173 194zM157 579l88 127h101l88 -127h-85l-53 80h-2l-52 -80h-85z" />
<glyph unicode="&#xfc;" horiz-adv-x="598" d="M69 182v324h97v-302q0 -61 19.5 -93.5t75.5 -32.5q74 0 119 56t45 135v237h97v-506h-94v67l2 37h-2q-19 -44 -68.5 -80t-117.5 -36q-173 0 -173 194zM173 605v101h80v-101h-80zM340 605v101h80v-101h-80z" />
<glyph unicode="&#xfd;" horiz-adv-x="510" d="M2 506h109l127 -331l19 -61h2q8 34 17 60l123 332h105l-237 -597q-23 -57 -66.5 -88t-97.5 -31q-25 0 -49.5 8t-36.5 16l-12 7l34 74q28 -21 59 -21q60 0 91 74l25 58zM215 579l73 127h104l-96 -127h-81z" />
<glyph unicode="&#xfe;" horiz-adv-x="600" d="M76 -200v906h97v-230l-1 -42h2q1 1 9 11t14.5 17.5t21 18.5t29.5 18.5t37.5 13t47.5 5.5q102 0 163.5 -74t61.5 -191t-63.5 -191t-164.5 -74q-32 0 -60.5 8.5t-45.5 21t-29 24.5t-17 20l-5 9h-2q2 -18 2 -44v-227h-97zM170 252q0 -79 39.5 -129.5t105.5 -50.5 q62 0 103 50t41 131q0 80 -39 130.5t-103 50.5q-63 0 -105 -45t-42 -137z" />
<glyph unicode="&#xff;" horiz-adv-x="510" d="M2 506h109l127 -331l19 -61h2q8 34 17 60l123 332h105l-237 -597q-23 -57 -66.5 -88t-97.5 -31q-25 0 -49.5 8t-36.5 16l-12 7l34 74q28 -21 59 -21q60 0 91 74l25 58zM135 605v101h80v-101h-80zM302 605v101h80v-101h-80z" />
<glyph unicode="&#x152;" horiz-adv-x="960" d="M48 354q0 153 104.5 257t260.5 104q26 0 66.5 -4.5t56.5 -4.5h358v-86h-312v-221h254v-86h-254v-227h330v-86h-375q-16 0 -57 -4.5t-67 -4.5q-155 0 -260 104.5t-105 258.5zM150 354q0 -118 74 -197.5t189 -79.5q18 0 35.5 1.5t26.5 3.5l9 2v538q-31 8 -71 8 q-115 0 -189 -79.5t-74 -196.5z" />
<glyph unicode="&#x153;" horiz-adv-x="1000" d="M40 252q0 117 78.5 191.5t191.5 74.5q147 0 219 -120h2q64 120 208 120q103 0 161 -67t58 -170l-3 -42h-369q6 -80 55 -123.5t119 -43.5q39 0 76.5 15t55.5 29l18 15l40 -71q-8 -8 -24 -20t-67 -32t-105 -20q-153 0 -221 123h-2q-71 -123 -221 -123q-113 0 -191.5 73.5 t-78.5 190.5zM139 252q0 -80 50 -130t123 -50t123.5 50.5t50.5 132.5q0 79 -51 129t-123 50t-122.5 -50.5t-50.5 -131.5zM589 312h270q-2 62 -36 95.5t-85 33.5q-58 0 -98.5 -34t-50.5 -95z" />
<glyph unicode="&#x178;" horiz-adv-x="588" d="M8 706h112l131 -232l43 -89h2q21 49 43 89l129 232h112l-236 -407v-299h-99v299zM168 781v101h80v-101h-80zM335 781v101h80v-101h-80z" />
<glyph unicode="&#x2c6;" horiz-adv-x="499" d="M111 755l88 127h101l88 -127h-85l-53 80h-2l-52 -80h-85z" />
<glyph unicode="&#x2dc;" horiz-adv-x="499" d="M81 756q0 127 102 127q29 0 51 -17t40 -34t35 -17q20 0 29.5 19.5t9.5 45.5h70q0 -127 -102 -127q-29 0 -51 17t-40 34t-35 17q-39 0 -39 -65h-70z" />
<glyph unicode="&#x2000;" horiz-adv-x="446" />
<glyph unicode="&#x2001;" horiz-adv-x="892" />
<glyph unicode="&#x2002;" horiz-adv-x="446" />
<glyph unicode="&#x2003;" horiz-adv-x="892" />
<glyph unicode="&#x2004;" horiz-adv-x="297" />
<glyph unicode="&#x2005;" horiz-adv-x="223" />
<glyph unicode="&#x2006;" horiz-adv-x="148" />
<glyph unicode="&#x2007;" horiz-adv-x="148" />
<glyph unicode="&#x2008;" horiz-adv-x="111" />
<glyph unicode="&#x2009;" horiz-adv-x="178" />
<glyph unicode="&#x200a;" horiz-adv-x="49" />
<glyph unicode="&#x2010;" horiz-adv-x="472" d="M90 242v86h292v-86h-292z" />
<glyph unicode="&#x2011;" horiz-adv-x="472" d="M90 242v86h292v-86h-292z" />
<glyph unicode="&#x2012;" horiz-adv-x="472" d="M90 242v86h292v-86h-292z" />
<glyph unicode="&#x2013;" horiz-adv-x="706" d="M90 246v78h526v-78h-526z" />
<glyph unicode="&#x2014;" horiz-adv-x="906" d="M90 246v78h726v-78h-726z" />
<glyph unicode="&#x2018;" horiz-adv-x="227" d="M49 522l66 195h71l-43 -195h-94z" />
<glyph unicode="&#x2019;" horiz-adv-x="219" d="M51 523l43 195h94l-65 -195h-72z" />
<glyph unicode="&#x201a;" horiz-adv-x="244" d="M42 -90l43 195h91l-65 -195h-69z" />
<glyph unicode="&#x201c;" horiz-adv-x="369" d="M49 522l66 195h72l-43 -195h-95zM190 522l66 195h72l-43 -195h-95z" />
<glyph unicode="&#x201d;" horiz-adv-x="360" d="M51 523l43 195h95l-66 -195h-72zM192 523l43 195h95l-65 -195h-73z" />
<glyph unicode="&#x201e;" horiz-adv-x="383" d="M42 -90l43 195h91l-65 -195h-69zM180 -90l43 195h92l-65 -195h-70z" />
<glyph unicode="&#x2022;" horiz-adv-x="411" d="M51 291q0 65 45.5 110t109.5 45t109 -45.5t45 -109.5t-45 -109.5t-109 -45.5t-109.5 45t-45.5 110z" />
<glyph unicode="&#x2026;" horiz-adv-x="770" d="M76 0v103h99v-103h-99zM335 0v103h100v-103h-100zM595 0v103h99v-103h-99z" />
<glyph unicode="&#x202f;" horiz-adv-x="178" />
<glyph unicode="&#x2039;" horiz-adv-x="355" d="M44 282l164 206h97l-164 -206l164 -205h-97z" />
<glyph unicode="&#x203a;" horiz-adv-x="355" d="M50 77l164 205l-164 206h97l164 -206l-164 -205h-97z" />
<glyph unicode="&#x205f;" horiz-adv-x="223" />
<glyph unicode="&#x20ac;" horiz-adv-x="591" d="M38 258v63h55q-4 40 0 72h-55v64h67q30 115 123 188t215 73q25 0 50 -3t38 -6l13 -3l-24 -91q-37 11 -79 11q-83 0 -144.5 -46t-86.5 -123h281l-13 -64h-282q-6 -33 -1 -72h270l-13 -63h-240q23 -79 86.5 -127.5t146.5 -48.5q22 0 45 3t34 7l12 3l19 -90 q-48 -17 -112 -17q-126 0 -218.5 74.5t-120.5 195.5h-66z" />
<glyph unicode="&#x2122;" horiz-adv-x="940" d="M23 639v67h380v-67h-152v-373h-76v373h-152zM435 266l35 440h69l104 -230l14 -42h2q6 24 13 42l104 230h70l34 -440h-75l-21 263l1 30h-2l-95 -212h-61l-95 212h-2l1 -30l-21 -263h-75z" />
<glyph unicode="&#xe000;" horiz-adv-x="505" d="M0 0v505h505v-505h-505z" />
</font>
</defs>
</svg>
