<?xml version="1.0" standalone="no"?>
<!DOCTYPE svg PUBLIC "-//W3C//DTD SVG 1.1//EN" "http://www.w3.org/Graphics/SVG/1.1/DTD/svg11.dtd" >
<svg xmlns="http://www.w3.org/2000/svg">
<metadata>
This is a custom SVG font generated by IcoMoon.
<iconset grid="16"></iconset>
</metadata>
<defs>
<font id="icomoon" horiz-adv-x="512" >
<font-face units-per-em="512" ascent="480" descent="-32" />
<missing-glyph horiz-adv-x="512" />
<glyph class="hidden" unicode="&#xf000;" d="M0,480L 512 -32L0 -32 z" horiz-adv-x="0" />
<glyph unicode="&#xe035;" d="M 1370.703,224L 1116.83,438.607L 1116.83,314.23L 86.528,314.23L 86.528,133.849L 1116.83,133.849L 1116.83,9.472 	zM 1116.83,1.694c-1.024,0-2.166,0.236-3.269,0.709c-2.757,1.3-4.49,3.978-4.49,7.010L 1109.11,126.169 L 86.528,126.169 
		C 82.274,126.169, 78.769,129.634, 78.769,133.849L 78.769,314.23 C 78.769,318.405, 82.274,321.91, 86.528,321.91l 1022.562,0 L 1109.11,438.607 c0,2.993, 1.733,5.711, 4.49,7.010
		c 2.757,1.221, 5.947,0.788, 8.231-1.063l 253.873-214.607c 1.733-1.497, 2.796-3.584, 2.796-5.908s-0.985-4.45-2.796-5.908l-253.873-214.607
		C 1120.335,2.343, 1118.641,1.694, 1116.83,1.694z M 94.208,141.568l 1022.562,0 c 4.332,0, 7.759-3.505, 7.759-7.719l0-107.756 L 1358.73,224l-234.26,197.908l0-107.756 
		c0-4.254-3.426-7.759-7.759-7.759L 94.208,306.471 L 94.208,141.568 z" horiz-adv-x="1457.231"  />
<glyph unicode="&#xe004;" d="M 506.701,476.316L 512.132,470.886L 9.096-32.15L 3.666-26.72z" />
<glyph unicode="&#xe001;" d="M 384.333-8.378L 362.827-29.887L 109.508,223.43L 110.079,224.001L 109.508,224.572L 362.824,477.888L 384.333,456.38L 151.953,224 z" />
<glyph unicode="&#xe000;" d="M 130.627,456.379L 152.133,477.887L 405.453,224.571L 404.882,224L 405.453,223.43L 152.136-29.887L 130.627-8.379L 363.007,224.001 z" />
<glyph unicode="&#xe005;" d="M 203.879,276.027L 5.632,276.027 L 5.632,474.275 l 198.247,0 L 203.879,276.027 z M 17.92,288.315l 173.671,0 L 191.591,461.987 L 17.92,461.987 L 17.92,288.315 zM 508.519,276.027L 310.272,276.027 L 310.272,474.275 l 198.247,0 L 508.519,276.027 z M 322.56,288.315l 173.671,0 L 496.231,461.987 L 322.56,461.987 L 322.56,288.315 zM 204.135-28.519L 5.888-28.519 L 5.888,169.728 l 198.247,0 L 204.135-28.519 z M 18.176-16.231l 173.671,0 L 191.847,157.44 L 18.176,157.44 L 18.176-16.231 zM 508.775-28.519L 310.528-28.519 L 310.528,169.728 l 198.247,0 L 508.775-28.519 z M 322.816-16.231l 173.671,0 L 496.487,157.44 L 322.816,157.44 L 322.816-16.231 z" />
<glyph unicode="&#x30;" d="M 503.864,47.001L 380.57,170.29l-0.001,0.001c 18.101,30.358, 28.518,65.806, 28.518,103.645
		c0,111.944-91.075,203.020-203.020,203.020C 94.125,476.956, 3.049,385.88, 3.049,273.936c0-111.945, 91.076-203.016, 203.019-203.016
		c 37.746,0, 73.11,10.366, 103.42,28.383c 0.018-0.018, 0.032-0.038, 0.051-0.057L 432.83-24.038c 5.634-5.643, 14.916-5.496, 20.73,0.318
		l 49.984,49.987C 509.358,32.075, 509.5,41.365, 503.864,47.001z M 52.706,273.936c0,84.563, 68.798,153.361, 153.361,153.361
		c 84.564,0, 153.361-68.797, 153.361-153.361c0-84.561-68.797-153.358-153.361-153.358C 121.504,120.578, 52.706,189.375, 52.706,273.936
		z" />
<glyph unicode="&#xe006;" d="M 133.332,459.727L 141.573,467.96L 385.521,224.010L 385.51,224L 385.521,223.992L 141.568-19.96L 133.332-11.725L 369.060,224.003 
	z" />
<glyph unicode="&#xe007;" d="M 367.603,459.727L 359.363,467.96L 115.412,224.010L 115.423,224L 115.412,223.992L 359.368-19.96L 367.603-11.725L 131.876,224.003 z" />
<glyph unicode="&#xe00c;" d="M 492.593,327.055L 500.828,318.815L 256.878,74.867L 256.868,74.877L 256.858,74.867L 12.905,318.82L 21.14,327.055L 256.868,91.328 z" />
<glyph unicode="&#xe008;" d="M 488.376,340.933l 21.509-21.504l-253.317-253.32L 256,66.678l-0.573-0.571L 2.112,319.421l 21.507,21.509L 256,108.552L 488.376,340.933z
		" />
<glyph unicode="&#xe00e;" d="M 512,300.922 C 512,257.741 493.391,218.907 463.755,192 L 464,192 L 304,32 C 288,16 272,0 256,0 C 240,0 224,16 208,32 L 48,192 L 48.245,192 C 18.609,218.907 0,257.741 0,300.922 C 0,382.151 65.849,448 147.078,448 C 190.259,448 229.093,429.391 256,399.755 C 282.907,429.391 321.741,448 364.922,448 C 446.15,448 512,382.151 512,300.922 Z" />
<glyph unicode="&#xe00f;" d="M 512,300.922C 512,382.151, 446.15,448, 364.922,448C 321.741,448, 282.907,429.391, 256,399.755C 229.093,429.391, 190.259,448, 147.078,448
	C 65.849,448,0,382.151,0,300.922C0,257.741, 18.609,218.907, 48.245,192L 48,192 l 160-160c 16-16, 32-32, 48-32s 32,16, 48,32l 160,160l-0.245,0 
	C 493.391,218.907, 512,257.741, 512,300.922z M 420.734,239.384L 258.745,77.255c-0.839-0.839-1.766-1.766-2.745-2.74
	c-0.98,0.975-1.907,1.901-2.745,2.74L 91.266,239.383C 73.683,255.347, 64,277.202, 64,300.922C 64,346.731, 101.269,384, 147.078,384
	c 23.72,0, 45.575-9.683, 61.538-27.266L 256,304.544l 47.384,52.189C 319.348,374.317, 341.202,384, 364.922,384
	C 410.731,384, 448,346.731, 448,300.922C 448,277.202, 438.316,255.347, 420.734,239.384z" />
<glyph unicode="&#xe003;" d="M 468.54,77.784L 318.164,228.16l 140.136,140.136c 3.571,3.571, 3.903,9.028, 0.742,12.189L 409.87,429.658
	c-3.161,3.161-8.619,2.828-12.189-0.742L 257.545,288.78L 116.769,429.555c-3.571,3.571-9.028,3.903-12.189,0.742l-49.172-49.172
	c-3.161-3.161-2.829-8.619, 0.742-12.189L 196.925,228.16L 45.909,77.144c-3.57-3.571-3.903-9.027-0.742-12.189l 49.174-49.172
	c 3.16-3.161, 8.618-2.829, 12.189,0.742l 151.016,151.016L 407.92,17.165c 3.571-3.571, 9.028-3.904, 12.189-0.742l 49.174,49.172
	C 472.442,68.756, 472.11,74.212, 468.54,77.784z" />
<glyph unicode="&#xe010;" d="M 290.071,258.083L 290.071,480.012L 221.94,480.012L 221.94,258.083L 0.012,258.083L 0.012,189.975L 221.94,189.975L 221.94-31.988L 290.071-31.988L 290.071,189.975L 511.988,189.975L 511.988,258.083 z" />
<glyph unicode="&#x62;" d="M 467.088,395.76c-58.064,57.536-150.912,58.736-211.056,4.608
		C 195.872,454.496, 103.056,453.296, 44.96,395.76c-59.856-59.264-59.856-155.344,0-214.64c 17.104-16.944, 176.848-175.056, 176.848-175.056
		c 18.928-18.752, 49.536-18.752, 68.448,0c0,0, 174.912,173.152, 176.848,175.056C 526.976,240.416, 526.976,336.496, 467.088,395.76z M 444.288,203.712
		L 267.44,28.656c-6.288-6.256-16.544-6.256-22.8,0L 67.792,203.712c-47.2,46.72-47.2,122.736,0,169.456
		c 45.504,45.040, 118.656,46.624, 166.544,3.552l 21.696-19.52l 21.68,19.52c 47.904,43.072, 121.056,41.504, 166.56-3.552
		C 491.472,326.464, 491.472,250.448, 444.288,203.712zM 148.048,359.984 C 152.48,359.984 156.048,356.4 156.048,351.984 C 156.048,347.568 152.464,343.984 148.048,343.984 L 148.032,343.984 C 119.328,343.984 96.048,320.704 96.048,292 L 96.048,291.984 C 96.048,287.568 92.464,283.984 88.048,283.984 C 83.632,283.984 80.048,287.568 80.048,291.984 L 80.048,291.984 C 80.048,329.52 110.464,359.936 147.984,359.968 C 148.016,359.968 148.016,359.984 148.048,359.984 Z" />
<glyph unicode="&#x61;" d="M 414.624,269.712C 407.632,342.72, 346.848,400, 272,400
	c-57.904,0-107.472-34.368-130.336-83.68C 134.784,318.496, 127.616,320, 120.016,320c-39.76,0-72-32.256-72-72c0-7.904, 1.584-15.376, 3.936-22.464
	c-30.928-18.032-51.936-51.12-51.936-89.504c0-57.44, 46.56-104, 104-104L 104.016,32 L 392,32 l0,0.032 c 66.288,0, 120,53.712, 120,120
	C 512,210.528, 470.064,259.12, 414.624,269.712z M 392,64.032L 392,64 L 104.016,64 c-39.696,0.032-72,32.32-72,72.032c0,25.6, 13.488,48.72, 36.064,61.872
	c 21.936,12.592, 23.44,15.088, 14.24,37.712c-1.552,4.656-2.304,8.704-2.304,12.368c0,22.064, 17.936,40, 40,40c0,0, 10.496,0.752, 21.648-3.68
	c 18.352-7.312, 20.352-0.32, 29.024,18.544C 189.040,342.416, 228.8,368, 272,368c 57.6,0, 105.216-43.568, 110.784-101.344c 1.968-22.912, 1.968-22.912, 25.84-28.368
	C 450,230.384, 480,194.096, 480,152.032C 480,103.504, 440.528,64.032, 392,64.032z" />
<glyph unicode="&#xe02f;" d="M 510.096,279.088c-4.432,12.784-15.808,22.144-29.504,24.176l-133.216,19.808l-57.904,120.224
	C 283.376,455.92, 270.336,464, 256,464c-14.336,0-27.376-8.080-33.472-20.704l-57.904-120.224l-133.232-19.808c-13.68-2.032-25.056-11.392-29.472-24.176
	c-4.4-12.816-1.072-26.928, 8.592-36.56l 97.632-97.472l-22.64-135.216C 83.2-3.776, 89.104-17.44, 100.672-25.408
	C 107.024-29.776, 114.496-32, 121.968-32c 6.144,0, 12.304,1.504, 17.888,4.496L 256,35.024l 116.16-62.528C 377.744-30.496, 383.904-32, 390.032-32
	c 7.472,0, 14.944,2.224, 21.312,6.592c 11.568,7.968, 17.44,21.632, 15.152,35.248l-22.656,135.216l 97.664,97.472
	C 511.152,252.176, 514.464,266.288, 510.096,279.088z M 377.408,170.192c-8.192-8.16-11.904-19.664-10.032-30.944l 22.656-135.216l-116.16,62.496
	c-5.568,3.008-11.712,4.496-17.888,4.496c-6.144,0-12.304-1.504-17.872-4.496l-116.16-62.496l 22.656,135.216
	c 1.888,11.28-1.824,22.784-10.016,30.944l-97.632,97.472l 133.216,19.84c 12.176,1.808, 22.656,9.424, 27.888,20.288L 256,427.984l 57.92-120.208
	c 5.248-10.864, 15.712-18.464, 27.872-20.288l 133.248-19.84L 377.408,170.192z" />
<glyph unicode="&#x31;" d="M 354.72,342.016c-43.312,8.912-87.28,13.424-130.64,13.424c-43.36,0-87.312-4.512-130.64-13.424
		C 87.84,340.864, 83.264,336.8, 81.456,331.344c-23.072-70.096-23.072-141.168,0-211.264c 1.792-5.44, 6.368-9.504, 11.984-10.656
		C 136.768,100.528, 180.72,96, 224.080,96c 43.344,0, 87.328,4.528, 130.64,13.44c 5.632,1.152, 10.192,5.216, 12,10.656
		c 23.056,70.096, 23.056,141.168,0,211.264C 364.912,336.8, 360.336,340.864, 354.72,342.016z M 351.504,125.088c-84.944-17.44-169.904-17.44-254.832,0
		c-22.096,67.088-22.096,134.16,0,201.264c 84.944,17.456, 169.904,17.456, 254.832,0C 373.6,259.264, 373.6,192.192, 351.504,125.088zM 493.664,378.88c-3.088,13.024-14,22.752-27.28,24.352C 396.624,411.712, 325.872,416, 256.080,416
		C 186.304,416, 115.552,411.712, 45.792,403.248C 32.512,401.632, 21.616,391.92, 18.528,378.88c-24.464-102.768-24.464-206.976,0-309.76
		c 3.088-13.024, 13.984-22.752, 27.264-24.336c 33.616-4.096, 67.456-7.088, 101.296-9.216C 145.264,34.4, 144.080,33.216, 144.080,32c0-8.848, 50.144-16, 112-16
		c 61.856,0, 112,7.152, 112,16c0,1.216-1.184,2.4-3.008,3.568c 33.84,2.128, 67.68,5.12, 101.28,9.216c 13.28,1.6, 24.192,11.312, 27.28,24.336
		C 518.128,171.904, 518.128,276.112, 493.664,378.88z M 462.528,76.528c-137.632-16.688-275.264-16.688-412.88,0c-23.408,98.32-23.408,196.64,0,294.944
		c 137.632,16.704, 275.264,16.704, 412.88,0C 485.936,273.168, 485.936,174.848, 462.528,76.528zM 424.096,288c 13.248,0, 24,10.752, 24,24S 437.344,336, 424.096,336s-24-10.752-24-24S 410.848,288, 424.096,288z
		 M 424.096,320c 4.4,0, 8-3.6, 8-8s-3.6-8-8-8s-8,3.6-8,8S 419.68,320, 424.096,320zM 440.096,128 C 444.496,128 448.096,124.432 448.096,120 C 448.096,115.6 444.496,112 440.096,112 L 392.096,112 C 387.664,112 384.096,115.6 384.096,120 C 384.096,124.432 387.664,128 392.096,128 L 440.096,128 ZM 456.096,176 C 460.496,176 464.096,172.432 464.096,168 C 464.096,163.6 460.496,160 456.096,160 L 408.096,160 C 403.664,160 400.096,163.6 400.096,168 C 400.096,172.432 403.664,176 408.096,176 L 456.096,176 ZM 456.096,224 C 460.496,224 464.096,220.416 464.096,216 C 464.096,211.584 460.496,208 456.096,208 L 408.096,208 C 403.664,208 400.096,211.584 400.096,216 C 400.096,220.416 403.664,224 408.096,224 L 456.096,224 ZM 216.080,291.136 C 220.496,291.312 224.080,287.872 224.080,283.456 C 224.080,279.040 220.48,275.328 216.080,275.168 L 156.096,271.056 C 151.728,270.608 147.664,266.672 147.072,262.32 L 144.4,232 C 144.224,227.6 140.48,224 136.112,224 C 131.728,224 128.32,227.6 128.544,232 L 133.424,276.576 C 134.16,280.928 138.336,284.896 142.704,285.392 L 216.080,291.136 Z" />
<glyph unicode="&#x21;" d="M 431.968,255.952 C 431.968,335.344 367.376,399.952 287.968,399.936 L 287.968,400 C 283.568,400.016 280,403.6 280,408 C 280,412.416 283.568,416 288,416 C 288.16,416 288.288,415.936 288.4,415.904 C 376.528,415.696 447.872,344.272 447.968,256.128 C 447.968,256.080 448,256.048 448,256 C 448,251.584 444.4,248.016 440,248.016 C 435.6,248.016 432.032,251.568 432,255.952 L 431.968,255.952 ZM 145.936,465.952C 136.768,475.136, 124.48,480, 111.984,480C 105.808,480, 99.584,478.816, 93.648,476.352C 75.696,468.928, 64,451.424, 64,432
		L 63.984,211.888l-49.92-49.952c-18.752-18.72-18.752-49.12,0-67.872l 112-112C 135.44-27.312, 147.712-32, 160-32s 24.56,4.688, 33.936,14.064L 243.872,32
		l 220.096,0 c 19.44,0, 36.944,11.68, 44.336,29.632c 7.44,17.936, 3.344,38.592-10.4,52.32L 145.936,465.952z M 221.248,54.624l-49.936-49.936
		C 167.232,0.624, 162.464,0, 160,0s-7.232,0.624-11.312,4.688l-112,112C 32.608,120.784, 32,125.536, 32,128s 0.608,7.248, 4.688,11.312l 49.92,49.936
		c 0.144,0.16, 0.192,0.336, 0.336,0.496l 134.8-134.816C 221.6,54.816, 221.392,54.784, 221.248,54.624z M 243.872,64
		c-2.48,0-4.784-0.88-7.152-1.408L 94.56,204.752c 0.544,2.368, 1.424,4.672, 1.424,7.136L 96,404.624L 436.592,64L 243.872,64 z M 478.752,73.872
		C 476.288,67.872, 470.464,64, 463.968,64l-4.752,0 L 96,427.248L 96,432 c0,6.496, 3.872,12.304, 9.872,14.784C 107.84,447.6, 109.888,448, 111.984,448
		c 4.288,0, 8.304-1.664, 11.312-4.672l 351.984-352.016C 479.872,86.72, 481.248,79.872, 478.752,73.872zM 287.968,448 C 279.152,448.016 272,455.184 272,464 C 272,472.848 279.152,480 288,480 C 288.16,480 288.288,479.936 288.4,479.92 C 411.872,479.696 511.872,379.616 511.968,256.128 C 511.968,256.080 512,256.048 512,256 C 512,247.152 504.848,240 496,240 C 487.184,240 480.032,247.136 480,255.936 L 479.968,255.936 C 479.968,361.808 393.84,447.936 287.968,447.936 L 287.968,448 Z" />
<glyph unicode="&#x22;" d="M 480,384l-14.192,0 c-8.4,0-16.464-3.312-22.464-9.216L 400,332.032L 400,352 c0,26.512-21.504,48-48,48L 48,400 
	C 21.536,400,0,378.48,0,352l0-111.552 L0,96 c0-26.496, 21.488-48, 48-48l 304,0 c 26.496,0, 48,21.504, 48,48l0,19.536 l 43.344-42.752c 6-5.904, 14.064-9.216, 22.464-9.216
	L 480,63.568 c 17.664,0, 32,14.32, 32,32L 512,352 C 512,369.68, 497.664,384, 480,384z M 48,80c-8.832,0-16,7.184-16,16L 32,352 c0,8.848, 7.152,16, 16,16l 304,0 c 8.816,0, 16-7.168, 16-16l0-256 
	c0-8.816-7.184-16-16-16L 48,80 z M 480,95.568l-14.192,0 L 464,95.568 l-64,64L 400,160 l-16,16l0,96 l 80,80l 1.808,0 L 480,352 L 480,95.568 z" />
<glyph unicode="&#x23;" d="M 479.68,370.896c-1.536,25.12-22.192,45.056-47.68,45.056l-48,0 l0,16 L 384,431.984 
		c0,26.512-21.504,48-48,48L 176,479.984 c-26.512,0-48-21.488-48-48l0-0.016 l0-16 L 80,415.968 c-25.52,0-46.16-19.936-47.696-45.056L 32,370.912 l0-18.928 l0-16 c0-17.664, 14.336-32, 32-32l0,0l0-272 
		c0-35.344, 28.656-64, 64-64l 256,0 c 35.344,0, 64,28.656, 64,64l0,272 l0,0c 17.664,0, 32,14.336, 32,32l0,16 L 480,370.896 L 479.68,370.896 z M 160,431.968c0,8.848, 7.152,16, 16,16l 160,0 
		c 8.848,0, 16-7.152, 16-16l0-16 L 160,415.968 L 160,431.968 z M 416,31.968c0-17.632-14.368-32-32-32L 128-0.032 c-17.648,0-32,14.368-32,32l0,272 l 320,0 L 416,31.968 z M 448,351.984l0-16 L 64,335.984 l0,16 L 64,367.968 
		c0,8.848, 7.152,16, 16,16l 352,0 c 8.848,0, 16-7.152, 16-16L 448,351.984 zM 144,31.904l 32,0 c 8.848,0, 16,7.152, 16,16l0,208 c0,8.848-7.152,16-16,16L 144,271.904 
		c-8.848,0-16-7.152-16-16l0-208 C 128,39.056, 135.152,31.904, 144,31.904z M 144,255.92l 32,0 l0-208 L 144,47.92 L 144,255.92 zM 240,31.904l 32,0 c 8.848,0, 16,7.152, 16,16l0,208 c0,8.848-7.152,16-16,16l-32,0 
		c-8.848,0-16-7.152-16-16l0-208 C 224,39.056, 231.152,31.904, 240,31.904z M 240,255.92l 32,0 l0-208 l-32,0 L 240,255.92 zM 336,31.904l 32,0 c 8.848,0, 16,7.152, 16,16l0,208 c0,8.848-7.152,16-16,16l-32,0 
		c-8.848,0-16-7.152-16-16l0-208 C 320,39.056, 327.152,31.904, 336,31.904z M 336,255.92l 32,0 l0-208 l-32,0 L 336,255.92 z" />
<glyph unicode="&#x24;" d="M 497.76,26.624c-3.216,2.128-61.568,40.4-148.368,59.184c 31.84,40.336, 52.288,94.592, 60.976,130.704
	c 12.064,50.048, 7.376,147.968-40.688,208.992C 341.584,461.168, 302.272,480, 256,480c-46.272,0-85.584-18.848-113.664-54.496
	C 94.272,364.496, 89.6,266.576, 101.648,216.528c 8.688-36.112, 29.12-90.368, 60.976-130.704c-86.8-18.784-145.152-57.056-148.352-59.184
	c-11.728-7.808-16.976-22.4-12.88-35.872C 5.456-22.752, 17.92-32, 32-32l 448,0 c 14.096,0, 26.528,9.248, 30.624,22.752
	C 514.736,4.224, 509.488,18.816, 497.76,26.624z M 324.272,105.632l-5.216-6.624c-38.16-43.84-87.92-43.84-126.064,0l-5.232,6.624
	c-44.56,56.464-66.672,131.152-57.152,202.4C 139.328,376.496, 178.56,448, 256,448c 77.44,0, 116.688-71.52, 125.408-139.984
	C 390.896,236.736, 368.864,162.128, 324.272,105.632z M 32,0c 2.208,1.472, 56.416,37.024, 137.376,54.528l 39.744,8.592C 223.312,53.808, 238.88,48, 256,48
	c 17.136,0, 32.688,5.808, 46.88,15.12l 39.744-8.592c 80.32-17.376, 134.336-52.528, 137.376-54.528L 32,0 z" />
<glyph unicode="&#x25;" d="M 352.064,480c-88.368,0-160-71.648-160-160c0-20.56, 4.304-40.016, 11.408-58.064L 9.088,67.568
		C 3.472,61.936, 0,56.592, 0,48l0-48 c0-17.12, 14.864-32, 32-32l 48,0 c 8.576,0, 14,3.44, 19.616,9.024L 122.576,0l 37.488,0 c 17.664,0, 32,14.336, 32,32l0,32 l 32,0 
		c 17.664,0, 32,14.336, 32,32l0,37.504 l 37.904,37.936C 312.032,164.32, 331.472,160, 352.064,160c 88.336,0, 160,71.648, 160,160S 440.4,480, 352.064,480z M 352.064,192
		c-23.68,0-45.632,6.88-64.656,18.112l-5.504-5.488l-18-18l-30.48-30.496c-6-6-9.376-14.128-9.376-22.624L 224.048,96 l-32,0 
		c-17.664,0-32-14.32-32-32l0-32 L 122.576,32 c-8.48,0-16.624-3.376-22.624-9.376l-22.688-22.688L 32.048,0L 32,45.6l 186.64,186.304
		c0,0,0-0.016, 0.016-0.032l 23.504,23.504c-11.232,19.024-18.112,40.96-18.112,64.64c0,70.688, 57.328,128, 128,128s 128-57.312, 128-128S 422.752,192, 352.064,192zM 445.12,348.176c-17.936,24.992-39.776,46.8-64.88,64.864C 376.16,416, 370.88,416.736, 366.128,415.072
		c-22.224-7.824-37.44-23.024-45.216-45.248c-0.592-1.664-0.88-3.392-0.88-5.104c0-3.184, 0.992-6.336, 2.912-9.008
		c 18-25.024, 39.808-46.848, 64.848-64.848c 4.096-2.944, 9.344-3.696, 14.096-2.048c 22.256,7.776, 37.472,23.008, 45.28,45.248
		c 0.592,1.664, 0.88,3.392, 0.88,5.104C 448.032,342.352, 447.024,345.504, 445.12,348.176z M 397.12,303.84C 373.472,320.848, 352.88,341.44, 336,364.528
		c 6.192,17.648, 17.776,29.232, 34.912,35.536c 23.664-17.040, 44.224-37.584, 61.056-60.976C 425.712,321.568, 414.16,310.048, 397.12,303.84z" />
<glyph unicode="&#x26;" d="M 320,479.92c-106.032,0-192-85.968-192-192c0-32.416, 8.112-62.928, 22.32-89.728l-133.504-133.472l 0.112-0.096
		C 6.496,54.368,0,40.16,0,24.368c0-31.184, 25.28-56.464, 56.464-56.464c 15.76,0, 29.984,6.496, 40.24,16.944l-0.032,0.032l 133.456,133.44
		c 26.816-14.256, 57.376-22.4, 89.872-22.4c 106.032,0, 192,85.968, 192,192C 512,393.952, 426.032,479.92, 320,479.92z M 76.72,4.848
		c-5.152-5.344-12.288-8.688-20.256-8.688c-15.6,0-28.24,12.624-28.24,28.224c0,7.968, 3.36,15.088, 8.688,20.256l-0.144,0.128l 129.056,129.056
		c 11.28-15.216, 24.72-28.656, 39.904-39.968L 76.72,4.848z M 320,127.904c-88.352,0-160,71.664-160,160c0,88.352, 71.648,160, 160,160
		c 88.336,0, 160-71.648, 160-160C 480,199.568, 408.336,127.904, 320,127.904zM 320,399.92 C 324.4,399.92 328,396.336 328,391.92 C 328,387.504 324.4,383.92 320,383.92 C 266.976,383.92 224,340.928 224,287.92 C 224,283.504 220.416,279.92 216,279.92 C 211.584,279.92 208,283.504 208,287.92 C 208,349.776 258.128,399.92 320,399.92 Z" />
<glyph unicode="&#x27;" d="M 486.256,277.12l-49.024,9.824c-2.464,7.088-5.376,13.968-8.592,20.624l 27.776,41.664
		c 8.464,12.688, 6.784,29.6-4,40.368l-30.784,30.784c-6.192,6.192-14.368,9.376-22.656,9.376c-6.128,0-12.32-1.76-17.712-5.376
		l-41.664-27.76c-6.688,3.232-13.568,6.112-20.656,8.576L 309.12,454.24c-2.976,14.976-16.128,25.728-31.376,25.728l-43.52,0 
		c-15.248,0-28.384-10.768-31.376-25.728l-9.824-49.040c-7.088-2.464-13.968-5.36-20.624-8.576L 130.752,424.384
		C 125.328,428, 119.152,429.76, 113.008,429.76c-8.272,0-16.448-3.184-22.64-9.376L 59.6,389.6c-10.784-10.784-12.464-27.68-4-40.368l 27.76-41.664
		c-3.232-6.672-6.112-13.552-8.576-20.64L 25.728,277.12C 10.768,274.128,0,260.992,0,245.744l0-43.52 c0-15.248, 10.768-28.4, 25.728-31.376
		l 49.040-9.84c 2.464-7.088, 5.36-13.968, 8.576-20.624L 55.6,98.72c-8.464-12.688-6.784-29.6, 4-40.368l 30.784-30.784
		c 6.192-6.192, 14.368-9.376, 22.64-9.376c 6.144,0, 12.336,1.776, 17.728,5.376l 41.664,27.776c 6.672-3.248, 13.552-6.128, 20.64-8.592
		l 9.808-49.024c 2.992-14.976, 16.128-25.744, 31.376-25.744l 43.52,0 c 15.248,0, 28.4,10.784, 31.376,25.744l 9.84,49.024
		c 7.088,2.464, 13.968,5.376, 20.624,8.592l 41.664-27.776c 5.408-3.6, 11.6-5.376, 17.712-5.376c 8.288,0, 16.464,3.184, 22.656,9.376
		l 30.784,30.784c 10.784,10.784, 12.464,27.68, 4,40.368l-27.776,41.664c 3.248,6.688, 6.128,13.568, 8.592,20.656l 49.024,9.808
		C 501.216,173.808, 512,186.976, 512,202.224l0,43.52 C 512,260.992, 501.216,274.128, 486.256,277.12z M 430.944,192.4
		c-11.12-2.224-20.224-10.16-23.936-20.88c-2.064-5.904-4.464-11.632-7.152-17.184c-4.976-10.224-4.128-22.288, 2.16-31.712l 27.776-41.664
		l-30.784-30.784l-41.664,27.776c-5.344,3.568-11.536,5.376-17.744,5.376c-4.752,0-9.536-1.056-13.936-3.184
		c-5.568-2.688-11.28-5.12-17.216-7.184c-10.688-3.712-18.624-12.816-20.848-23.936l-9.84-49.056l-43.52,0 l-9.808,49.056
		c-2.224,11.12-10.16,20.224-20.864,23.936c-5.904,2.064-11.648,4.464-17.2,7.152c-4.416,2.16-9.184,3.216-13.952,3.216
		c-6.224,0-12.4-1.808-17.744-5.376l-41.664-27.776l-30.784,30.784l 27.76,41.664c 6.288,9.44, 7.104,21.504, 2.192,31.68
		c-2.688,5.568-5.104,11.28-7.168,17.216c-3.712,10.688-12.832,18.624-23.936,20.848l-49.040,9.84L 32,245.744l 49.056,9.808
		c 11.104,2.224, 20.224,10.16, 23.936,20.864c 2.064,5.904, 4.448,11.648, 7.152,17.2c 4.96,10.208, 4.128,22.272-2.176,31.696L 82.224,366.976
		L 112.992,397.76l 41.664-27.76C 160,366.432, 166.192,364.624, 172.4,364.624c 4.752,0, 9.52,1.056, 13.936,3.184c 5.552,2.688, 11.28,5.104, 17.2,7.168
		c 10.704,3.712, 18.64,12.832, 20.864,23.936l 9.824,49.040l 43.52,0.016l 9.808-49.056c 2.224-11.104, 10.16-20.224, 20.88-23.936
		c 5.904-2.064, 11.632-4.448, 17.184-7.152c 4.432-2.144, 9.184-3.2, 13.968-3.2c 6.224,0, 12.4,1.808, 17.744,5.376l 41.664,27.76l 30.784-30.784
		l-27.776-41.664c-6.288-9.44-7.088-21.488-2.192-31.68c 2.688-5.552, 5.12-11.28, 7.184-17.2c 3.712-10.704, 12.816-18.64, 23.936-20.864
		l 49.024-9.824L 480,202.224L 430.944,192.4zM 256,335.984c-61.84,0-112-50.16-112-112c0-61.856, 50.16-112, 112-112s 112,50.16, 112,112C 368,285.824, 317.84,335.984, 256,335.984z
		 M 256,125.968c-54.112,0-98,43.904-98,98c0,54.112, 43.888,98, 98,98c 54.096,0, 98-43.888, 98-98
		C 354,169.872, 310.096,125.968, 256,125.968zM 256,287.984c-35.36,0-64-28.64-64-64c0-35.344, 28.64-64, 64-64c 35.344,0, 64,28.656, 64,64C 320,259.328, 291.344,287.984, 256,287.984z
		 M 256,175.968c-26.496,0-48,21.504-48,48c0,26.496, 21.504,48, 48,48s 48-21.504, 48-48C 304,197.472, 282.496,175.968, 256,175.968z" />
<glyph unicode="&#xe00a;" d="M 256,319.984c-70.704,0-128-57.296-128-128c0-70.688, 57.296-128, 128-128
		c 70.688,0, 128,57.312, 128,128C 384,262.672, 326.688,319.984, 256,319.984z M 328.88,129.504c-34.496-40.256-95.088-44.912-135.344-10.4
		c-40.272,34.496-44.912,95.104-10.4,135.344c 34.48,40.272, 95.088,44.912, 135.344,10.4C 358.72,230.368, 363.376,169.744, 328.88,129.504zM 256,255.984 C 260.416,255.984 264,252.4 264,247.984 C 264,243.568 260.416,239.984 256,239.984 C 229.488,239.984 208.016,218.496 208,192 L 208,191.968 C 208,187.568 204.416,183.968 200,183.968 C 195.584,183.968 192,187.568 192,191.968 L 192,192 C 192.016,227.328 220.656,255.984 256,255.984 ZM 471.872,335.328l-69.344,11.568l-21.968,54.944
		C 373.216,420.16, 355.712,432, 336,432L 176,432 C 156.288,432, 138.784,420.16, 131.424,401.824L 109.472,346.896L 40.144,335.328C 16.88,331.472,0,311.568,0,288l0-240 
		c0-26.464, 21.536-48, 48-48l 416,0 c 26.464,0, 48,21.536, 48,48L 512,288 C 512,311.568, 495.12,331.472, 471.872,335.328z M 480,48c0-8.848-7.152-16-16-16L 48,32 
		c-8.848,0-16,7.152-16,16L 32,288 c0,7.824, 5.664,14.496, 13.376,15.776l 87.104,14.512l 28.656,71.648C 163.584,396, 169.456,400, 176,400l 160,0 
		c 6.528,0, 12.4-3.984, 14.848-10.064l 28.656-71.648l 87.12-14.512C 474.336,302.496, 480,295.824, 480,288L 480,48 z" />
<glyph unicode="&#xe00b;" d="M 502.256,257.872l-80,128c-11.68,18.704-32.192,30.080-54.256,30.080L 64,415.952 
		c-35.344,0-64-28.656-64-64l0-256 c0-35.344, 28.656-64, 64-64l 304,0 c 22.064,0, 42.56,11.376, 54.256,30.096l 80,128C 515.248,210.768, 515.248,237.12, 502.256,257.872z
		 M 475.12,207.008l-80-128.032c-5.872-9.408-16.032-15.024-27.12-15.024L 64,63.952 c-17.648,0-32,14.368-32,32l0,256 c0,17.648, 14.352,32, 32,32l 304,0 
		c 11.088,0, 21.248-5.632, 27.12-15.024l 80-128C 481.568,230.608, 481.568,217.296, 475.12,207.008zM 368,271.952c-26.528,0-48-21.488-48-48c0-26.512, 21.472-48, 48-48
		c 26.496,0, 48,21.504, 48,48C 416,250.464, 394.496,271.952, 368,271.952z M 368,191.936c-17.68,0-32,14.336-32,32c0,17.664, 14.32,32, 32,32
		c 17.664,0, 32-14.336, 32-32C 400,206.288, 385.664,191.936, 368,191.936z" />
<glyph unicode="&#xe00d;" d="M 400,272L 400,336 c0,79.536-64.464,144-144,144c-79.536,0-144-64.464-144-144l0-64 c-26.512,0-48-21.488-48-48l0-48 l0-16 l0-32 l0-16 c0-79.536, 64.464-144, 144-144l 96,0 
		c 79.536,0, 144,64.464, 144,144l0,16 l0,32 l0,16 l0,48 C 448,250.528, 426.496,272, 400,272z M 144,336c0,61.856, 50.144,112, 112,112c 61.856,0, 112-50.144, 112-112l0-64 l-32,0 L 336,335.968 
		c0,44.192-35.808,80-80,80c-44.192,0-80-35.808-80-80L 176,272 L 144,272 L 144,336 z M 320,336l0-0.048 L 320,272 l-128,0 L 192,335.968 L 192,336 c0,35.344, 28.656,64, 64,64C 291.344,400, 320,371.344, 320,336z M 416,176
		l0-16 l0-32 l0-16 c0-61.744-50.256-112-112-112l-96,0 c-61.744,0-112,50.256-112,112l0,16 l0,32 l0,16 l0,48 c0,8.832, 7.168,16, 16,16c 10.672,0, 21.328,0, 32,0l 224,0 c 10.656,0, 21.312,0, 32,0
		c 8.816,0, 16-7.168, 16-16L 416,176 zM 256,176 C 273.664,176 288,161.68 288,144 C 288,134.256 282.752,115.712 277.344,101.088 C 272.976,89.28 268.512,80.032 256,80.032 C 244.496,80.032 239.024,89.376 234.672,101.248 C 229.328,115.84 224,134.288 224,144 C 224,161.68 238.336,176 256,176 Z" />
<glyph unicode="&#xe011;" d="M 256,480C 158.784,480, 80,401.216, 80,304c0-64.496, 59.008-132.848, 80.496-192.88C 192.544,21.6, 188.992-32, 256-32
		c 68,0, 63.44,53.344, 95.504,142.752C 373.056,170.912, 432,240, 432,304C 432,401.216, 353.184,480, 256,480z M 297.472,45.184l-79.328-9.904
		c-2.832,8.192-5.872,17.776-9.568,30.288c-0.048,0.16-0.112,0.336-0.144,0.496l 99.008,12.368c-1.408-4.72-2.912-9.68-4.224-14.128
		C 301.12,57.12, 299.248,50.88, 297.472,45.184z M 203.776,81.472c-2.912,9.632-6.192,19.776-9.84,30.528l 124.256,0 
		c-1.968-5.744-3.936-11.504-5.632-16.944L 203.776,81.472z M 256,0c-16.208,0-23.664,1.872-31.952,20l 67.808,8.496
		C 282.032,2.032, 274.88,0, 256,0z M 330.752,144l-149.328,0 c-7.968,17.28-17.536,34.56-26.976,51.472C 133.568,232.832, 112,271.472, 112,304
		c0,79.408, 64.592,144, 144,144c 79.408,0, 144-64.592, 144-144c0-32.288-21.6-71.136-42.496-108.72C 348.16,178.432, 338.656,161.184, 330.752,144zM 256,400 C 260.4,400 264,396.416 264,392 C 264,387.584 260.416,384 256,384 C 211.888,384 176,348.112 176,304 C 176,299.584 172.416,296 168,296 C 163.584,296 160,299.584 160,304 C 160,356.944 203.056,400 256,400 Z" />
<glyph unicode="&#xe01b;" d="M 470.32,438.72C 444,465.008, 409.344,480, 375.184,480c-28.816,0-55.344-10.688-74.72-30.032l-77.872-78.464
	c-0.24-0.224-0.512-0.368-0.752-0.608c-0.128-0.128-0.208-0.304-0.336-0.416l 0.032-0.032L 56.272,203.904
	c-7.616-7.568-13.136-16.992-16.208-27.28l-37.584-136.128C 2.448,40.128,0,29.44,0,24C0-6.912, 25.104-32, 56.064-32
	c 6.16,0, 18.080,2.944, 18.512,3.008l 135.648,35.664c 10.304,3.056, 19.664,8.624, 27.28,16.256l 244.208,246.128
	C 526.128,313.504, 521.12,388, 470.32,438.72z M 256.224,99.28c-1.312,14.432-5.392,28.592-11.504,42.032l 151.28,151.264
	c 9.248-29.216, 4.496-59.776-15.776-80.064c-0.128-0.128-0.288-0.208-0.4-0.336l 0.224-0.208l-123.648-124.64
	C 256.4,91.312, 256.592,95.216, 256.224,99.28z M 236.688,155.904c-5.968,9.808-12.752,19.28-21.152,27.664
	c-9.776,9.776-20.992,17.44-32.704,23.872l 152.512,152.512c 11.968-5.312, 23.44-12.88, 33.568-23.008c 8.656-8.624, 15.344-18.288, 20.496-28.336
	L 236.688,155.904z M 167.776,215.008c-14.816,5.968-30.336,9.376-45.888,9.584l 123.248,124.192c 18.864,18.4, 46.336,23.696, 73.392,16.992
	L 167.776,215.008z M 66.672,2.032C 64.928,1.632, 59.504,0.256, 55.824,0C 42.672,0.16, 32,10.848, 32,24
	c 0.192,2.688, 1.264,7.312, 1.632,8.992l 16.848,61.024c 18.288,0.496, 37.968-6.624, 53.44-22.128c 15.712-15.68, 23.104-35.744, 22.304-54.256
	L 66.672,2.032z M 141.984,21.808c-0.384,21.472-9.12,43.808-26.752,61.408C 98.56,99.904, 76.736,109.536, 54.976,110.4l 15.936,57.712
	c 1.152,3.84, 3.44,7.632, 6.256,10.944c 32.096,22.976, 81.456,16.192, 115.744-18.128c 36.272-36.256, 41.872-89.376, 13.936-121.088
	c-1.856-0.976-3.728-1.904-5.744-2.496L 141.984,21.808z M 459.056,291.648l-26.944-27.152c0,3.616, 0.432,7.088, 0.096,10.784
	c-2.816,30.96-17.248,60.896-40.688,84.304c-26.064,26.080-60.624,41.040-94.848,41.136l 26.496,26.72C 336.432,440.672, 354.944,448, 375.184,448
	c 25.744,0, 52.192-11.648, 72.528-31.92c 19.088-19.056, 30.464-42.736, 32.096-66.688C 481.312,327.040, 473.936,306.544, 459.056,291.648z" />
<glyph unicode="&#xe01a;" d="M 502.624,325.168l-81.28,81.296C 415.344,412.464, 407.184,415.84, 398.72,415.84L 113.296,415.84 
	c-8.48,0-16.624-3.376-22.624-9.376l-81.28-81.296C 3.104,318.896-0.032,310.624,0,302.336c 0.048-7.52, 2.736-15.024, 8.096-21.056
	l 223.984-238.528C 238.16,35.904, 246.864,32, 256,32c 9.136,0, 17.84,3.904, 23.904,10.752l 224,238.528c 5.472,6.16, 8.16,13.872, 8.096,21.568
	C 511.936,310.944, 508.784,319.008, 502.624,325.168z M 291.504,303.84L 220.48,303.84 L 256,333.424L 291.504,303.84z M 268.512,343.84l 43.712,36.448l 32.288-32.288
	L 304,314.256L 268.512,343.84z M 208,314.256L 167.488,348l 32.288,32.288l 43.728-36.448L 208,314.256z M 295.84,287.84L 256,88.592L 216.16,287.84L 295.84,287.84 z
	 M 312.16,287.84l 78.496,0 l-117.744-196.304L 312.16,287.84z M 316.464,303.84l 39.408,32.816l 32.816-32.816L 316.464,303.84 z M 331.312,383.84l 56.192,0 l-30.656-25.552
	L 331.312,383.84z M 256,354.24l-35.52,29.6l 71.008,0 L 256,354.24z M 155.136,358.288L 124.48,383.84l 56.208,0 L 155.136,358.288z M 156.128,336.656l 39.392-32.816L 123.312,303.84 
	L 156.128,336.656z M 199.84,287.84l 39.248-196.304L 121.328,287.84L 199.84,287.84 z M 203.264,120.192L 45.824,287.84l 56.864,0 L 203.264,120.192z M 409.312,287.84l 56.88,0 
	l-157.472-167.68L 409.312,287.84z M 411.312,303.84l-43.088,43.088l 36.752,30.64l 73.712-73.728L 411.312,303.84 z M 106.976,377.6l 36.816-30.672L 100.688,303.84L 32.096,303.84 
	L 106.976,377.6z" />
<glyph unicode="&#xe019;" d="M 432,400.064L 80,400C 71.152,400, 64,392.912, 64,384.064l0-224 c0-8.848, 7.152-16, 16-16l 352,0 c 8.848,0, 16,7.152, 16,16l0,224 
		C 448,392.912, 440.848,400.064, 432,400.064z M 432,160L 80,160 L 80,384.064 l 352,0 L 432,160 zM 464,464L 48,464 C 21.488,464,0,442.528,0,416l0-320 c0-26.464, 21.408-47.904, 47.84-47.968L 208,48.032 l0-19.472 l-99.872-12.976
		C 100.992,13.808, 96,7.408, 96,0.064c0-8.848, 7.152-16, 16-16l 288,0 c 8.848,0, 16,7.152, 16,16c0,7.344-4.992,13.744-12.128,15.536L 304,28.56l0,19.472 
		l 160.16,0 C 490.592,48.096, 512,69.536, 512,96L 512,416 C 512,442.528, 490.496,464, 464,464z M 480,96c0-8.816-7.184-16-16-16l-144,0 l-128,0 L 48,80 c-8.832,0-16,7.184-16,16L 32,416 
		c0,8.832, 7.168,16, 16,16l 416,0 c 8.816,0, 16-7.168, 16-16L 480,96 z" />
<glyph unicode="&#xe018;" d="M 256.032,196.064c 52.944,0, 96,43.072, 96,96s-43.056,96-96,96
		c-52.944,0-96-43.056-96-96S 203.088,196.064, 256.032,196.064z M 256.032,372.064c 44.128,0, 80-35.872, 80-80s-35.872-80-80-80c-44.128,0-80,35.872-80,80
		S 211.904,372.064, 256.032,372.064zM 256,480C 150.112,480, 64,394.944, 64,287.984c0-112, 96.016-226.576, 166.016-307.104
		C 230.272-19.44, 241.504-32, 255.392-32c 0.032,0, 1.168,0, 1.232,0c 13.872,0, 25.12,12.56, 25.376,12.88
		c 70.032,80.528, 166.032,195.088, 166.032,307.104C 448.032,394.944, 361.904,480, 256,480z M 257.872,1.872c-0.336-0.32-1.312-1.024-2.16-1.568
		c-0.16,0.432-1.344,1.376-2.064,2.128C 195.008,69.904, 96,183.776, 96,287.984C 96,376.208, 167.792,448, 256,448c 88.256,0, 160.032-71.792, 160.032-160.032
		C 416.032,183.776, 317.024,69.904, 257.872,1.872z" />
<glyph unicode="&#xe02e;" d="M 511.44,227.584c-0.16,0.672-0.064,1.392-0.32,2.048c-0.096,0.272-0.336,0.416-0.432,0.672
		c-0.16,0.384-0.128,0.816-0.336,1.184c-46.4,88.816-147.408,152.448-253.968,152.448c-106.576,0-207.568-63.536-254-152.336
		c-0.208-0.368-0.176-0.8-0.336-1.184c-0.112-0.256-0.336-0.4-0.432-0.672c-0.256-0.656-0.16-1.376-0.32-2.048
		c-0.288-1.2-0.56-2.352-0.56-3.584s 0.288-2.368, 0.56-3.584c 0.16-0.672, 0.064-1.392, 0.32-2.048
		c 0.096-0.272, 0.336-0.416, 0.432-0.672c 0.16-0.384, 0.128-0.816, 0.336-1.184c 46.416-88.816, 147.424-152.448, 254-152.448
		c 106.56,0, 207.568,63.536, 253.968,152.336c 0.224,0.368, 0.192,0.8, 0.336,1.184c 0.096,0.256, 0.336,0.4, 0.432,0.672
		c 0.256,0.656, 0.16,1.376, 0.32,2.048C 511.712,221.632, 512,222.784, 512,224S 511.712,226.384, 511.44,227.584z M 256.368,96.192
		c-89.84,0-177.792,51.056-221.616,127.92c 44.064,76.96, 131.888,127.84, 221.616,127.84c 89.808,0, 177.776-51.072, 221.6-127.92
		C 433.904,147.056, 346.096,96.192, 256.368,96.192zM 256.368,288.016 C 260.784,288.016 264.336,284.448 264.336,280.016 C 264.336,275.616 260.768,272.032 256.368,272.032 L 256.368,272.016 C 229.904,272.016 208.384,250.496 208.384,224.064 C 208.384,219.648 204.8,216.064 200.4,216.064 C 195.984,216.064 192.4,219.648 192.4,224.064 C 192.4,259.344 220.992,287.936 256.272,288 C 256.304,288 256.336,288.016 256.368,288.016 ZM 256,336c-61.872,0-112-50.144-112-112c0-61.856, 50.144-112, 112-112c 61.84,0, 112,50.16, 112,112C 368,285.872, 317.84,336, 256,336z M 256,128
		c-52.944,0-96,43.056-96,96c0,52.944, 43.056,96, 96,96c 52.944,0, 96-43.056, 96-96C 352,171.056, 308.944,128, 256,128z" />
<glyph unicode="&#xe017;" d="M 256,368 C 260.416,368 264,364.416 264,360 C 264,355.584 260.4,352 256,352 C 170.768,352 96,307.136 96,256 C 96,251.584 92.416,248 88,248 C 83.584,248 80,251.584 80,256 C 80,316.704 160.592,368 256,368 ZM 256,448C 114.608,448,0,362.032,0,256c0-66.032, 44.464-124.256, 112.128-158.816
		C 112.128,96.752, 112,96.464, 112,96c0-28.688-21.424-59.568-30.848-75.776c 0.016,0, 0.032,0, 0.032,0C 80.432,18.464, 80,16.528, 80,14.496
		C 80,6.496, 86.48,0, 94.496,0C 96,0, 98.64,0.4, 98.576,0.224c 50,8.192, 97.104,54.128, 108.048,67.44C 222.608,65.312, 239.088,64, 256,64
		c 141.36,0, 256,85.968, 256,192C 512,362.032, 397.376,448, 256,448z M 256,96c-14.672,0-29.728,1.12-44.736,3.312c-1.552,0.256-3.104,0.336-4.64,0.336
		c-9.504,0-18.608-4.224-24.736-11.68c-6.848-8.336-26.336-26.944-49.36-40.624c 6.24,14.32, 11.12,30.368, 11.456,46.912
		c 0.096,1.024, 0.144,2.064, 0.144,2.944c0,12.032-6.736,23.024-17.44,28.496C 67.392,155.968, 32,204.688, 32,256C 32,344.224, 132.48,416, 256,416
		c 123.488,0, 224-71.776, 224-160C 480,167.776, 379.504,96, 256,96z" />
<glyph unicode="&#xe016;" d="M 510.784,184.72L 446.752,424.816C 442.88,438.464, 430.224,448, 416,448L 256,448 L 96,448 C 81.76,448, 69.12,438.464, 65.248,424.816L 1.216,184.72
		C 0.4,181.808,0,178.88,0,176l0-112 c0-35.344, 28.656-64, 64-64l 384,0 c 35.344,0, 64,28.656, 64,64l0,112 C 512,178.88, 511.6,181.808, 510.784,184.72z M 480,64
		c0-17.632-14.368-32-32-32L 64,32 c-17.648,0-32,14.368-32,32l0,112 L 96.016,416.016l 319.952,0 L 480,176L 480,64 zM 379.872,384L 132.128,384 c-7.248,0-13.6-4.88-15.472-11.888l-55.12-192c-1.264-4.816-0.256-9.936, 2.784-13.872
		S 72.032,160, 76.992,160l 46.496,0 l 18.256,0 l 8.336,0 l 23.152-46.32C 178.672,102.848, 189.744,96, 201.872,96l 108.256,0 c 12.128,0, 23.184,6.848, 28.624,17.68
		L 361.904,160l 8.336,0 l 18.256,0 l 46.496,0 c 4.976,0, 9.664,2.32, 12.688,6.256s 4.032,9.056, 2.784,13.872l-55.12,192C 393.472,379.136, 387.12,384, 379.872,384z
		 M 388.496,192l-26.592,0 c-12.192,0-23.152-6.752-28.624-17.68L 310.128,128l-108.256,0 l-23.152,46.32C 173.248,185.248, 162.288,192, 150.096,192L 123.504,192 L 85.344,192 
		L 132.128,368l 247.744,0 l 46.784-176L 388.496,192 z" />
<glyph unicode="&#xe015;" d="M 449.776,399.648l-19.44,58.48C 426,471.2, 413.776,480, 400,480L 112,480 C 98.208,480, 86,471.2, 81.632,458.128
	L 62.032,399.616C 45.328,398.544, 32,384.976, 32,368l0-48 c0-17.664, 14.336-32, 32-32l 16.544,0 c0-1.2-0.48-2.336-0.336-3.536l 32-288C 114-19.712, 127.68-32, 144-32
	l 224,0 c 16.32,0, 30,12.288, 31.776,28.464l 32,288c 0.16,1.2-0.336,2.336-0.336,3.536L 448,288 c 17.664,0, 32,14.336, 32,32L 480,368 
	C 480,385.040, 466.56,398.672, 449.776,399.648z M 112,448l 288,0 l 16-48L 96,400 L 112,448z M 144,0l-5.328,48l 234.656,0 L 368,0L 144,0 z M 375.088,64L 136.88,64 L 119.104,224l 273.776,0 
	L 375.088,64z M 394.656,240L 117.328,240 L 112,288l 288,0 L 394.656,240z M 448,320L 64,320 L 64,368 l 384,0 L 448,320 z" />
<glyph unicode="&#xe013;" d="M 384,480L 128,480C 101.472,480, 80,458.512, 80,432l0-416 c0-26.528, 21.488-48, 48-48l 256,0 c 26.496,0, 48,21.504, 48,48L 432,432 C 432,458.528, 410.496,480, 384,480z
		 M 400,16c0-8.816-7.184-16-16-16L 128,0 c-8.832,0-16,7.152-16,16l0,32.064 l 288,0 L 400,16 z M 400,64.064L 112,64.064 L 112,384 L 400,384L 400,64.064 z M 400,400L 112,400L 112,432 c0,8.832, 7.168,16, 16,16
		L 384,448c 8.816,0, 16-7.168, 16-16L 400,400 zM 288,424C 288,419.584, 284.4,416, 280,416l-48,0 C 227.568,416, 224,419.584, 224,424l0,0C 224,428.432, 227.568,432, 232,432l 48,0 
		C 284.4,432, 288,428.432, 288,424L 288,424zM 272,24.064c0-4.4-3.6-8-8-8l-16,0 c-4.416,0-8,3.6-8,8l0,0c0,4.432, 3.584,8, 8,8l 16,0 
		C 268.4,32.064, 272,28.496, 272,24.064L 272,24.064z" />
<glyph unicode="&#xe014;" d="M 464,480L 112,480 C 85.488,480, 64,458.528, 64,432l0-32 L 48,400 C 21.488,400,0,378.528,0,352l0-320 
		c0-35.344, 28.656-64, 64-64l 384,0 c 35.344,0, 64,28.656, 64,64L 512,432 C 512,458.528, 490.496,480, 464,480z M 480,32c0-17.632-14.368-32-32-32L 64,0 c-17.648,0-32,14.368-32,32L 32,352 
		c0,8.832, 7.168,16, 16,16l 16,0 l0-320 c0-8.848, 7.152-16, 16-16s 16,7.152, 16,16L 96,432 c0,8.832, 7.168,16, 16,16l 352,0 c 8.816,0, 16-7.168, 16-16L 480,32 zM 311.968,271.92 C 307.568,271.92 303.968,275.504 303.968,279.92 C 303.968,284.336 307.568,287.92 311.968,287.92 L 439.968,287.92 C 444.4,287.92 447.968,284.336 447.968,279.92 C 447.968,275.504 444.4,271.92 439.968,271.92 L 311.968,271.92 ZM 311.968,319.92 C 307.568,319.92 303.968,323.504 303.968,327.92 C 303.968,332.336 307.568,335.92 311.968,335.92 L 439.968,335.92 C 444.4,335.92 447.968,332.336 447.968,327.92 C 447.968,323.504 444.4,319.92 439.968,319.92 L 311.968,319.92 ZM 311.968,367.92 C 307.568,367.92 303.968,371.504 303.968,375.92 C 303.968,380.336 307.568,383.92 311.968,383.92 L 439.968,383.92 C 444.4,383.92 447.968,380.336 447.968,375.92 C 447.968,371.504 444.4,367.92 439.968,367.92 L 311.968,367.92 ZM 264,47.936 C 268.416,47.936 272,44.336 272,39.936 C 272,35.504 268.4,31.936 264,31.936 L 136,31.936 C 131.584,31.936 128,35.504 128,39.936 C 128,44.336 131.584,47.936 136,47.936 L 264,47.936 ZM 264,95.936 C 268.416,95.936 272,92.336 272,87.936 C 272,83.504 268.4,79.936 264,79.936 L 136,79.936 C 131.584,79.936 128,83.504 128,87.936 C 128,92.336 131.584,95.936 136,95.936 L 264,95.936 ZM 264,143.936 C 268.416,143.936 272,140.336 272,135.936 C 272,131.504 268.4,127.936 264,127.936 L 136,127.936 C 131.584,127.936 128,131.504 128,135.936 C 128,140.336 131.584,143.936 136,143.936 L 264,143.936 ZM 440,47.936 C 444.4,47.936 448,44.336 448,39.936 C 448,35.504 444.4,31.936 440,31.936 L 312,31.936 C 307.568,31.936 304,35.504 304,39.936 C 304,44.336 307.568,47.936 312,47.936 L 440,47.936 ZM 440,95.936 C 444.4,95.936 448,92.336 448,87.936 C 448,83.504 444.4,79.936 440,79.936 L 312,79.936 C 307.568,79.936 304,83.504 304,87.936 C 304,92.336 307.568,95.936 312,95.936 L 440,95.936 ZM 440,143.936 C 444.4,143.936 448,140.336 448,135.936 C 448,131.504 444.4,127.936 440,127.936 L 312,127.936 C 307.568,127.936 304,131.504 304,135.936 C 304,140.336 307.568,143.936 312,143.936 L 440,143.936 ZM 440,239.936 C 444.4,239.936 448,236.352 448,231.936 C 448,227.52 444.4,223.936 440,223.936 L 136,223.936 C 131.584,223.936 128,227.52 128,231.936 C 128,236.352 131.584,239.936 136,239.936 L 440,239.936 ZM 440,191.936 C 444.4,191.936 448,188.336 448,183.936 C 448,179.504 444.4,175.936 440,175.936 L 136,175.936 C 131.584,175.936 128,179.504 128,183.936 C 128,188.336 131.584,191.936 136,191.936 L 440,191.936 ZM 144,272l 112,0 c 8.848,0, 16,7.152, 16,16L 272,399.936 c0,8.848-7.152,16-16,16L 144,415.936 
		c-8.848,0-16-7.152-16-16L 128,288 C 128,279.168, 135.152,272, 144,272z M 160,384l 80,0 l0-80 l-80,0 L 160,384 z" />
<glyph unicode="&#xe012;" d="M 448,400L 64,400 C 28.656,400,0,371.328,0,336l0-208 c0-35.344, 28.656-64, 64-64l 384,0 c 35.344,0, 64,28.656, 64,64L 512,336 
	C 512,371.328, 483.344,400, 448,400z M 32,316l 111.984-84L 32,148L 32,316 z M 480,128c0-17.664-14.368-32-32-32L 64,96 c-17.648,0-32,14.336-32,32l 125.312,94
	l 69.888-52.432c 8.528-6.368, 18.656-9.6, 28.8-9.6c 10.128,0, 20.256,3.216, 28.784,9.6l 69.904,52.432L 480,128L 480,128z M 480,148l-112,84l 112,84
	L 480,148 z M 275.184,182.368c-5.584-4.192-12.208-6.4-19.184-6.4c-6.976,0-13.616,2.224-19.2,6.4L 170.64,232l-13.328,10L 32,335.984L 32,336 
	c0,17.648, 14.352,32, 32,32l 384,0 c 17.632,0, 32-14.352, 32-32L 275.184,182.368z" />
<glyph unicode="&#xe01c;" d="M 466.624,312.448c-20,5.248-67.024,5.184-135.808,7.008
		c 3.248,15.008, 4,28.544, 4,52.576C 334.816,429.44, 292.992,480, 256,480c-26.128,0-47.664-21.36-48-47.632c-0.352-32.224-10.32-87.872-64-116.096
		c-3.936-2.080-15.2-7.632-16.848-8.352L 128,307.2C 119.6,314.448, 107.952,320, 96,320L 48,320 c-26.464,0-48-21.536-48-48l0-256 c0-26.464, 21.536-48, 48-48l 48,0 
		c 19.040,0, 34.976,11.504, 42.688,27.632c 0.192-0.064, 0.528-0.16, 0.752-0.192c 1.056-0.288, 2.304-0.592, 3.824-0.992
		C 143.552-5.632, 143.696-5.664, 144-5.744c 9.216-2.288, 26.96-6.528, 64.88-15.248C 217.008-22.848, 259.952-32, 304.432-32l 87.472,0 
		c 26.656,0, 45.872,10.256, 57.312,30.848c 0.16,0.32, 3.84,7.504, 6.848,17.216c 2.256,7.312, 3.088,17.664, 0.368,28.16
		c 17.184,11.808, 22.72,29.664, 26.32,41.28c 6.032,19.056, 4.224,33.376, 0.032,43.632c 9.664,9.12, 17.904,23.024, 21.376,44.256
		c 2.16,13.152-0.16,26.688-6.224,37.952c 9.056,10.176, 13.184,22.976, 13.664,34.816l 0.192,3.344C 511.904,251.6, 512,252.896, 512,257.504
		C 512,277.712, 498,303.488, 466.624,312.448z M 112,16c0-8.848-7.152-16-16-16L 48,0 c-8.848,0-16,7.152-16,16L 32,272 c0,8.848, 7.152,16, 16,16l 48,0 
		c 8.848,0, 16-7.152, 16-16L 112,16 z M 479.632,247.44C 479.312,239.536, 476,224, 448,224c-24,0-32,0-32,0c-4.432,0-8-3.584-8-8S 411.568,208, 416,208
		c0,0, 7.008,0, 31.008,0s 27.152-19.904, 25.6-29.504C 470.624,166.56, 465.024,144, 438,144C 411.008,144, 400,144, 400,144c-4.432,0-8-3.568-8-8
		c0-4.4, 3.568-8, 8-8c0,0, 19.008,0, 31.504,0c 27.008,0, 24.624-20.592, 20.752-32.88C 447.152,78.976, 444.032,64, 410,64
		c-11.504,0-26.096,0-26.096,0c-4.432,0-8-3.568-8-8c0-4.4, 3.568-8, 8-8c0,0, 11.088,0, 25.088,0
		c 17.504,0, 18.32-16.56, 16.496-22.496c-2-6.496-4.368-11.312-4.464-11.536C 416.192,5.248, 408.4,0, 391.904,0l-87.472,0 
		c-43.936,0-87.52,9.968-88.64,10.224c-66.464,15.312-69.968,16.496-74.144,17.68c0,0-13.536,2.288-13.536,14.096L 128,262.992
		c0,7.504, 4.784,14.288, 12.704,16.672c 0.992,0.384, 2.336,0.8, 3.296,1.2c 73.088,30.272, 95.344,96.64, 96,151.136c 0.096,7.664, 6,16, 16,16
		c 16.912,0, 46.816-33.952, 46.816-75.968C 302.816,334.096, 301.28,327.536, 288,288c 160,0, 158.88-2.304, 172.992-6C 478.496,276.992, 480,262.496, 480,257.504
		C 480,252.016, 479.84,252.816, 479.632,247.44zM 72,64C 58.752,64, 48,53.248, 48,40S 58.752,16, 72,16
		S 96,26.752, 96,40S 85.248,64, 72,64z M 72,32C 67.6,32, 64,35.6, 64,40S 67.6,48, 72,48S 80,44.4, 80,40S 76.4,32, 72,32z" />
<glyph unicode="&#xe01d;" d="M 432,480L 80,480 C 44.656,480, 16,451.344, 16,416l0-384 c0-35.344, 28.656-64, 64-64l 352,0 c 35.344,0, 64,28.656, 64,64L 496,416 C 496,451.344, 467.344,480, 432,480z
		 M 464,32c0-17.632-14.368-32-32-32L 80,0 c-17.648,0-32,14.368-32,32L 48,416 c0,17.648, 14.352,32, 32,32l 352,0 c 17.632,0, 32-14.352, 32-32L 464,32 zM 416,416L 96,416 C 87.152,416, 80,408.848, 80,400l0-288 c0-8.848, 7.152-16, 16-16l 320,0 c 8.848,0, 16,7.152, 16,16L 432,400 C 432,408.848, 424.848,416, 416,416z
		 M 416,400l0-221.904 l-52,56.48C 360.944,238.032, 356.592,240, 352,240s-8.976-1.968-12-5.424l-41.664-47.2l-126.336,143.2
		C 168.96,334.032, 164.592,336, 160,336S 151.040,334.032, 148,330.576L 96,270.608L 96,400 L 416,400 z M 96,246.4l 64,73.6l 129.056-146.288l 9.28-10.528L 342.528,112L 96,112 L 96,246.4 z
		 M 363.84,112l-54.848,63.28L 352,224l 64-70.064L 416,112 L 363.84,112 zM 320,272c 26.496,0, 48,21.488, 48,48s-21.504,48-48,48c-26.528,0-48-21.488-48-48S 293.472,272, 320,272z M 320,352c 17.632,0, 32-14.352, 32-32
		s-14.368-32-32-32c-17.664,0-32,14.352-32,32S 302.336,352, 320,352z" />
<glyph unicode="&#xe01e;" d="M 502.624,358.64l-96,96C 400.624,460.64, 392.464,464, 384,464L 48,464 
		C 21.536,464,0,442.48,0,416l0-384 c0-26.464, 21.536-48, 48-48l 416,0 c 26.464,0, 48,21.536, 48,48L 512,336 C 512,344.496, 508.624,352.64, 502.624,358.64z M 480,32
		c0-8.848-7.152-16-16-16L 48,16 c-8.848,0-16,7.152-16,16L 32,416 c0,8.848, 7.152,16, 16,16l 320,0 l0-64 l-0.032,0 c0-26.512, 21.504-48, 48-48l 16,0 L 480,320 L 480,32 z M 431.968,336l-16,0 
		c-17.632,0-32,14.352-32,32L 384,368 L 384,432 l 96-96L 431.968,336 zM 248,352 C 243.584,352 240,355.568 240,360 C 240,364.432 243.584,368 248,368 L 328,368 C 332.4,368 336,364.416 336,360 C 336,355.584 332.4,352 328,352 L 248,352 ZM 248,304 C 243.584,304 240,307.584 240,312 C 240,316.416 243.584,320 248,320 L 328,320 C 332.4,320 336,316.416 336,312 C 336,307.584 332.4,304 328,304 L 248,304 ZM 240,264 C 240,268.432 243.584,272 248,272 L 440,272 C 444.4,272 448,268.416 448,264 C 448,259.584 444.4,256 440,256 L 248,256 C 243.584,256 240,259.584 240,264 ZM 440,176 C 444.4,176 448,172.432 448,168 C 448,163.6 444.4,160 440,160 L 72,160 C 67.584,160 64,163.6 64,168 C 64,172.432 67.584,176 72,176 L 440,176 ZM 440,128 C 444.4,128 448,124.432 448,120 C 448,115.6 444.4,112 440,112 L 72,112 C 67.584,112 64,115.6 64,120 C 64,124.432 67.584,128 72,128 L 440,128 ZM 440,80 C 444.4,80 448,76.432 448,72 C 448,67.6 444.4,64 440,64 L 72,64 C 67.584,64 64,67.6 64,72 C 64,76.432 67.584,80 72,80 L 440,80 ZM 440,224 C 444.4,224 448,220.416 448,216 C 448,211.584 444.4,208 440,208 L 72,208 C 67.584,208 64,211.568 64,216 C 64,220.432 67.584,224 72,224 L 440,224 ZM 80,256l 112,0 c 8.848,0, 16,7.152, 16,16L 208,368 c0,8.848-7.152,16-16,16L 80,384 
		C 71.152,384, 64,376.848, 64,368l0-96 C 64,263.168, 71.152,256, 80,256z M 96,352l 80,0 l0-64 L 96,288 L 96,352 z" />
<glyph unicode="&#xe01f;" d="M 240,320A16,16 1260 1 0 272,320A16,16 1260 1 0 240,320zM 240,128A16,16 1260 1 0 272,128A16,16 1260 1 0 240,128zM 144,224A16,16 1260 1 0 176,224A16,16 1260 1 0 144,224zM 336,224A16,16 1260 1 0 368,224A16,16 1260 1 0 336,224zM 172.112,156.128A16,16 1260 1 0 204.112,156.128A16,16 1260 1 0 172.112,156.128zM 172.112,291.888A16,16 1260 1 0 204.112,291.88800000000003A16,16 1260 1 0 172.112,291.88800000000003zM 307.872,156.128A16,16 1260 1 0 339.872,156.128A16,16 1260 1 0 307.872,156.128zM 416,256c-1.12,0-2.064-0.528-3.152-0.64c-5.568,27.92-18.72,52.896-36.752,73.504L 353.12,453.856
		C 350.32,469.008, 337.088,480, 321.664,480l-128,0 c-15.424,0-28.64-11.008-31.472-26.16l-22.4-120.784C 112.912,304.464, 96,266.368, 96,224
		c0-41.328, 16.224-78.48, 41.936-106.848l 22.592-123.008C 163.344-20.992, 176.576-32, 192-32l 128,0 c 15.408,0, 28.624,11.008, 31.472,26.16l 22.784,122.912
		c 19.024,20.976, 32.848,46.72, 38.592,75.6C 413.936,192.528, 414.88,192, 416,192c 17.664,0, 32,14.336, 32,32C 448,241.68, 433.664,256, 416,256z M 193.664,448l 128,0 
		l 16-86.192C 314.032,375.552, 286.976,384, 257.664,384c-29.296,0-56.368-8.448-80-22.192L 193.664,448z M 320,0l-128,0 l-16,86.192
		C 199.616,72.464, 226.688,64, 256,64c 29.296,0, 56.384,8.464, 80,22.192L 320,0z M 256,96c-70.576,0-128,57.44-128,128c0,70.576, 57.424,128, 128,128
		c 70.576,0, 128-57.424, 128-128C 384,153.44, 326.56,96, 256,96zM 335.056,303.584 C 336.992,301.648 337.184,298.528 335.504,296.4 L 296.688,248.064 L 267.12,212.464 C 264.096,209.552 259.936,208.064 255.936,208.032 C 251.632,208.064 247.616,209.728 244.624,212.704 C 241.632,215.68 240,219.664 240,223.872 C 240,228.224 241.68,232.288 244.736,235.36 L 327.808,303.92 C 330,305.68 333.12,305.52 335.056,303.584 Z" />
<glyph unicode="&#xe020;" d="M 504.688,477.44C 502.032,479.152, 499.008,480, 496,480c-3.088,0-6.192-0.88-8.88-2.688l-480-320
	c-4.944-3.28-7.664-9.056-7.024-14.976c 0.608-5.904, 4.448-11.008, 9.968-13.184l 125.184-50.096l 58.864-103.008
	c 2.816-4.944, 8.048-8, 13.712-8.064c 0.064,0, 0.112,0, 0.176,0c 5.616,0, 10.832,2.976, 13.712,7.776l 33.232,55.408l 155.12-62.032
	C 411.968-31.632, 413.968-32, 416-32c 2.72,0, 5.408,0.688, 7.84,2.064c 4.224,2.368, 7.12,6.528, 7.936,11.312l 80,480
	C 512.816,467.664, 510.032,473.968, 504.688,477.44z M 50.176,147.568L 420.976,394.784L 151.376,106.192c-1.424,0.848-2.688,1.968-4.256,2.592
	L 50.176,147.568z M 163.024,94.944c-0.032,0.064-0.080,0.096-0.112,0.16L 466,419.504L 207.616,16.912L 163.024,94.944z M 403.472,6.256
	l-136.656,54.656c-3.248,1.28-6.624,1.712-9.968,1.904L 467.28,389.024L 403.472,6.256z" />
<glyph unicode="&#xe021;" d="M 128,383.664L 128,432 c0,26.464-21.536,48-48,48S 32,458.464, 32,432l0-48.336 
		C 12.672,369.024,0,346.096,0,320s 12.672-49.024, 32-63.632L 32,16 c0-26.464, 21.536-48, 48-48s 48,21.536, 48,48L 128,256.368 c 19.328,14.592, 32,37.536, 32,63.632
		S 147.328,369.024, 128,383.664z M 64,432c0,8.848, 7.152,16, 16,16s 16-7.152, 16-16l0-33.6 C 90.832,399.44, 85.488,400, 80,400S 69.168,399.44, 64,398.4L 64,432 z M 96,16
		c0-8.848-7.152-16-16-16s-16,7.152-16,16L 64,241.632 C 69.168,240.56, 74.512,240, 80,240s 10.832,0.56, 16,1.632L 96,16 z M 125.84,306.56
		c-0.256-0.848-0.48-1.68-0.784-2.528c-1.52-4.224-3.472-8.224-6.048-11.776c-0.064-0.096-0.16-0.16-0.224-0.256
		c-2.784-3.808-6.096-7.184-9.856-10.032c-0.064-0.064-0.112-0.096-0.16-0.128c-3.856-2.912-8.16-5.248-12.784-6.88
		C 90.976,273.152, 85.648,272, 80,272s-10.976,1.152-16,2.976c-4.624,1.632-8.928,3.968-12.784,6.88c-0.048,0.032-0.096,0.064-0.16,0.128
		c-3.76,2.848-7.072,6.224-9.856,10.032c-0.064,0.096-0.16,0.16-0.224,0.256c-2.576,3.568-4.528,7.568-6.048,11.776
		c-0.304,0.848-0.528,1.68-0.784,2.528C 32.88,310.848, 32,315.312, 32,320c0,4.72, 0.88,9.184, 2.16,13.472
		c 0.256,0.848, 0.48,1.68, 0.784,2.496C 36.448,340.192, 38.4,344.192, 40.992,347.776c 0.064,0.096, 0.16,0.16, 0.224,0.256
		c 2.784,3.776, 6.096,7.184, 9.856,10.032c 0.064,0.032, 0.112,0.096, 0.16,0.128C 55.072,361.056, 59.376,363.408, 64,365.056
		C 69.024,366.848, 74.352,368, 80,368s 10.976-1.152, 16-2.944c 4.624-1.664, 8.928-4, 12.784-6.88c 0.048-0.032, 0.096-0.096, 0.16-0.128
		c 3.76-2.848, 7.072-6.256, 9.856-10.032c 0.064-0.096, 0.16-0.16, 0.224-0.256C 121.6,344.192, 123.552,340.192, 125.056,335.968
		C 125.36,335.152, 125.6,334.32, 125.84,333.472C 127.12,329.184, 128,324.72, 128,320C 128,315.312, 127.12,310.848, 125.84,306.56zM 480,383.664L 480,432 c0,26.464-21.536,48-48,48s-48-21.536-48-48l0-48.336 
		C 364.656,369.024, 352,346.096, 352,320s 12.656-49.024, 32-63.632L 384,16 c0-26.464, 21.536-48, 48-48s 48,21.536, 48,48L 480,256.368 c 19.312,14.592, 32,37.536, 32,63.632
		S 499.312,369.024, 480,383.664z M 416,432c0,8.848, 7.152,16, 16,16s 16-7.152, 16-16l0-33.6 C 442.816,399.44, 437.472,400, 432,400c-5.504,0-10.848-0.56-16-1.6L 416,432 z
		 M 448,16c0-8.848-7.152-16-16-16s-16,7.152-16,16L 416,241.632 C 421.152,240.56, 426.496,240, 432,240c 5.472,0, 10.816,0.56, 16,1.632L 448,16 z M 477.84,306.56
		c-0.256-0.848-0.496-1.68-0.784-2.528c-1.536-4.224-3.472-8.224-6.064-11.776c-0.064-0.096-0.16-0.16-0.224-0.256
		c-2.784-3.808-6.096-7.184-9.84-10.032c-0.064-0.064-0.128-0.096-0.16-0.128c-3.872-2.912-8.16-5.248-12.784-6.88
		C 442.976,273.152, 437.632,272, 432,272c-5.664,0-10.976,1.152-16,2.976c-4.624,1.632-8.944,3.968-12.784,6.88
		c-0.064,0.032-0.096,0.064-0.16,0.128c-3.776,2.848-7.088,6.224-9.872,10.032c-0.064,0.096-0.16,0.16-0.224,0.256
		c-2.56,3.568-4.528,7.568-6.032,11.776c-0.32,0.848-0.528,1.68-0.784,2.528C 384.88,310.848, 384,315.312, 384,320
		c0,4.72, 0.88,9.184, 2.16,13.472c 0.256,0.848, 0.464,1.68, 0.784,2.496c 1.504,4.224, 3.472,8.224, 6.032,11.808
		c 0.064,0.096, 0.16,0.16, 0.224,0.256c 2.784,3.776, 6.096,7.184, 9.872,10.032c 0.064,0.032, 0.096,0.096, 0.16,0.128
		c 3.84,2.88, 8.16,5.216, 12.784,6.88C 421.024,366.848, 426.336,368, 432,368c 5.632,0, 10.976-1.152, 16-2.944c 4.624-1.664, 8.912-4, 12.784-6.88
		c 0.032-0.032, 0.096-0.096, 0.16-0.128c 3.744-2.848, 7.056-6.256, 9.84-10.032c 0.064-0.096, 0.16-0.16, 0.224-0.256
		c 2.592-3.6, 4.528-7.6, 6.064-11.808c 0.288-0.816, 0.528-1.664, 0.784-2.496C 479.12,329.184, 480,324.72, 480,320
		C 480,315.312, 479.12,310.848, 477.84,306.56zM 304,191.664L 304,432 c0,26.464-21.536,48-48,48s-48-21.536-48-48l0-240.336 
		c-19.328-14.624-32-37.568-32-63.664s 12.672-49.024, 32-63.632L 208,16 c0-26.464, 21.536-48, 48-48s 48,21.536, 48,48l0,48.368 c 19.312,14.592, 32,37.536, 32,63.632
		S 323.312,177.024, 304,191.664z M 240,432c0,8.848, 7.152,16, 16,16c 8.848,0, 16-7.152, 16-16l0-225.6 c-5.184,1.024-10.528,1.6-16,1.6
		c-5.488,0-10.832-0.56-16-1.6L 240,432 z M 272,16c0-8.848-7.152-16-16-16c-8.848,0-16,7.152-16,16l0,33.632 C 245.168,48.56, 250.512,48, 256,48
		c 5.472,0, 10.816,0.56, 16,1.632L 272,16 z M 301.84,114.56c-0.256-0.848-0.496-1.68-0.784-2.528c-1.536-4.224-3.472-8.224-6.064-11.776
		c-0.064-0.096-0.16-0.16-0.224-0.256c-2.784-3.808-6.096-7.184-9.84-10.032c-0.064-0.064-0.128-0.096-0.16-0.128
		c-3.872-2.912-8.16-5.248-12.784-6.88C 266.976,81.152, 261.632,80, 256,80c-5.648,0-10.976,1.152-16,2.976
		c-4.624,1.632-8.928,3.968-12.784,6.88c-0.048,0.032-0.096,0.064-0.16,0.128c-3.76,2.848-7.072,6.224-9.856,10.032
		c-0.064,0.096-0.16,0.16-0.224,0.256c-2.576,3.568-4.528,7.568-6.048,11.776c-0.304,0.848-0.528,1.68-0.784,2.528
		C 208.88,118.848, 208,123.312, 208,128c0,4.72, 0.88,9.184, 2.16,13.472c 0.256,0.848, 0.48,1.68, 0.784,2.496
		c 1.52,4.224, 3.472,8.224, 6.048,11.808c 0.064,0.096, 0.16,0.16, 0.224,0.256c 2.784,3.776, 6.096,7.184, 9.856,10.032
		c 0.064,0.032, 0.112,0.096, 0.16,0.128c 3.856,2.88, 8.16,5.216, 12.784,6.88C 245.024,174.848, 250.352,176, 256,176c 5.632,0, 10.976-1.152, 16-2.944
		c 4.624-1.664, 8.912-4, 12.784-6.88c 0.032-0.032, 0.096-0.096, 0.16-0.128c 3.744-2.848, 7.056-6.256, 9.84-10.032
		c 0.064-0.096, 0.16-0.16, 0.224-0.256c 2.592-3.6, 4.528-7.6, 6.064-11.808c 0.288-0.816, 0.528-1.664, 0.784-2.496
		C 303.12,137.184, 304,132.72, 304,128C 304,123.312, 303.12,118.848, 301.84,114.56z" />
<glyph unicode="&#xe022;" d="M 502.64,310.624l-160,160C 334.704,478.56, 323.2,481.744, 312.304,479.056
		c-5.744-1.408-10.88-4.368-14.944-8.432c-3.632-3.632-6.368-8.128-7.936-13.152c-7.248-23.504-19.776-43.936-38.32-62.464
		C 226.336,370.256, 194.080,351.504, 159.952,331.68c-36.224-20.992-73.648-42.752-104.32-73.408c-26.064-26.096-43.808-55.12-54.208-88.816
		c-3.504-11.376-0.448-23.68, 7.936-32.096l 160-160c 7.936-7.936, 19.44-11.12, 30.336-8.432c 5.744,1.44, 10.88,4.368, 14.944,8.432
		c 3.632,3.632, 6.368,8.128, 7.936,13.184c 7.264,23.504, 19.792,43.936, 38.352,62.464c 24.752,24.752, 56.992,43.472, 91.152,63.28
		c 36.192,21.024, 73.632,42.784, 104.288,73.44c 26.064,26.064, 43.808,55.12, 54.224,88.816C 514.080,289.904, 511.008,302.256, 502.64,310.624z M 192,0
		C 139.008,52.992, 84.992,107.024, 32,160c 45.472,147.216, 242.56,140.784, 288,288c 52.992-52.976, 107.024-107.008, 160.032-160
		C 434.544,140.816, 237.456,147.216, 192,0zM 312.992,241.6c-5.216,4.368-10.464,7.344-15.744,8.816
		c-5.248,1.472-10.496,2.064-15.808,1.68c-5.248-0.4-10.624-1.6-16-3.664c-5.376-2.096-10.784-4.368-16.224-7.008
		c-8.592,9.872-17.184,19.632-25.776,28.688c 3.872,3.504, 7.632,5.28, 11.248,5.408c 3.632,0.16, 7.12-0.224, 10.432-1.056
		c 3.376-0.848, 6.464-1.568, 9.312-2.128c 2.88-0.56, 5.376,0.064, 7.568,1.904c 2.32,2, 3.6,4.592, 3.776,7.712
		c 0.16,3.152-1.024,6.224-3.664,9.216c-3.376,3.872-7.44,6.224-12.32,7.088c-4.816,0.848-9.744,0.784-14.88-0.336
		c-5.056-1.152-9.872-3.056-14.432-5.744s-8.224-5.44-10.944-8.128c-1.040,0.992-2.080,1.968-3.12,2.944
		c-1.152,1.056-2.592,1.632-4.32,1.6c-1.744,0-3.184-0.752-4.368-2.128c-1.152-1.344-1.68-2.912-1.472-4.56
		c 0.16-1.712, 0.848-3.024, 2.032-4.032c 1.040-0.88, 2.080-1.744, 3.12-2.656c-4.096-4.944-7.472-10.4-10.128-16.16
		c-2.688-5.776-4.288-11.504-4.88-17.056c-0.624-5.6-0.032-10.72, 1.68-15.472c 1.712-4.784, 4.88-8.848, 9.504-12.688
		c 7.536-6.256, 16.4-8.912, 26.688-8.32c 10.256,0.624, 21.312,3.68, 33.2,10.064c 9.44-10.912, 18.912-21.744, 28.368-31.808
		c-4-3.376-7.504-5.312-10.592-5.936c-3.088-0.656-5.84-0.592-8.336,0.16c-2.496,0.784-4.816,1.904-6.944,3.344
		c-2.128,1.472-4.224,2.72-6.32,3.744c-2.064,1.024-4.192,1.6-6.368,1.632s-4.496-1.024-7.056-3.216
		c-2.624-2.288-3.936-4.944-3.936-7.936c0-2.976, 1.376-6, 4.064-9.056c 2.72-3.056, 6.256-5.632, 10.528-7.664
		s 9.104-3.312, 14.416-3.664c 5.312-0.368, 10.912,0.432, 16.816,2.624c 5.936,2.16, 11.808,6.064, 17.6,11.872
		c 2.784-2.72, 5.6-5.312, 8.4-7.808c 1.184-1.024, 2.624-1.536, 4.368-1.408c 1.68,0.064, 3.152,0.848, 4.32,2.256
		c 1.184,1.44, 1.68,3.024, 1.504,4.688c-0.16,1.68-0.848,2.976-2,3.904c-2.816,2.256-5.632,4.624-8.432,7.12
		c 4.784,5.872, 8.624,12.064, 11.472,18.192c 2.848,6.16, 4.528,12.096, 5.088,17.6c 0.56,5.536-0.096,10.528-1.904,15.056
		C 320.736,233.872, 317.552,237.808, 312.992,241.6z M 223.536,230.752c-4.528-0.192-8.48,1.312-11.936,4.656
		c-1.472,1.408-2.496,3.12-3.12,5.152c-0.656,2.032-0.88,4.256-0.624,6.688c 0.224,2.4, 0.944,4.912, 2.192,7.44
		c 1.184,2.528, 2.944,5.056, 5.184,7.504c 8.112-8.064, 16.208-16.912, 24.32-26.064C 233.408,232.752, 228.064,230.944, 223.536,230.752z
		 M 299.008,198.72c-1.44-2.656-3.088-5.024-5.024-7.088c-8.976,9.056-17.936,19.008-26.88,29.216c 2.288,1.024, 4.688,2.096, 7.28,3.184
		s 5.184,1.808, 7.776,2.256c 2.656,0.4, 5.28,0.288, 7.904-0.336c 2.592-0.656, 5.056-2.064, 7.344-4.288
		c 2.256-2.256, 3.68-4.592, 4.256-7.12c 0.624-2.56, 0.656-5.152, 0.224-7.808C 301.424,204.064, 300.48,201.408, 299.008,198.72zM 235.472,125.12 C 238.624,127.664 243.264,127.536 246.16,124.592 C 249.296,121.472 249.296,116.368 246.16,113.248 C 245.904,112.992 245.632,112.816 245.344,112.592 L 245.376,112.56 C 235.248,104.864 226.928,97.936 217.952,88.96 C 209.84,80.864 202.512,72.336 196.176,63.68 L 185.952,49.68 C 185.632,49.104 185.248,48.576 184.768,48.080 C 181.632,44.96 176.528,44.96 173.408,48.080 C 170.688,50.8 170.352,54.992 172.352,58.112 L 172.32,58.144 L 183.264,73.088 C 190.096,82.432 197.952,91.584 206.64,100.272 C 215.68,109.344 225.44,117.44 235.44,125.12 L 235.472,125.12 ZM 294.048,356.56 C 302.144,364.656 309.456,373.152 315.808,381.856 L 326.432,396.416 C 326.816,397.104 327.248,397.792 327.84,398.384 C 330.992,401.536 336.096,401.536 339.248,398.384 C 342.24,395.376 342.368,390.624 339.648,387.44 L 339.68,387.408 L 328.736,372.4 C 321.888,363.056 314.048,353.936 305.36,345.248 C 296.32,336.208 286.576,328.080 276.576,320.4 L 276.512,320.432 C 273.328,317.504 268.384,317.568 265.328,320.656 C 262.176,323.808 262.176,328.944 265.328,332.096 C 265.888,332.688 266.544,333.104 267.2,333.472 C 276.608,340.656 285.68,348.192 294.048,356.56 Z" />
<glyph unicode="&#xe023;" d="M 256,480C 148.096,480, 32,447.472, 32,376l0-304 C 32,0.56, 148.096-32, 256-32c 107.888,0, 224,32.56, 224,104l0,304 
		C 480,447.472, 363.872,480, 256,480z M 448,72c0-39.744-85.968-72-192-72c-106.048,0-192,32.256-192,72l0,59.776 C 97.056,97.712, 176.8,80, 256,80
		c 79.2,0, 158.944,17.712, 192,51.776L 448,72 z M 448,168l-0.064,0 c0-0.16, 0.064-0.336, 0.064-0.496C 448,128, 362.032,96, 256,96c-106.032,0-192,32-192,71.504
		c0,0.16, 0.064,0.336, 0.064,0.496L 64,168 l0,59.776 C 97.056,193.712, 176.8,176, 256,176c 79.2,0, 158.944,17.712, 192,51.776L 448,168 z M 448,264l-0.064,0 
		c0-0.16, 0.064-0.336, 0.064-0.496C 448,224, 362.032,192, 256,192c-106.032,0-192,32-192,71.504c0,0.16, 0.064,0.336, 0.064,0.496L 64,264 l0,54.976 
		C 105.936,287.024, 182.8,272, 256,272c 73.2,0, 150.064,15.024, 192,46.976L 448,264 z M 256,304C 149.952,304, 64,336.256, 64,376C 64,415.776, 149.952,448, 256,448
		c 106.032,0, 192-32.224, 192-72C 448,336.256, 362.032,304, 256,304zM 384,64A16,16 1260 1 0 416,64A16,16 1260 1 0 384,64zM 384,160A16,16 1260 1 0 416,160A16,16 1260 1 0 384,160zM 384,256A16,16 1260 1 0 416,256A16,16 1260 1 0 384,256z" />
<glyph unicode="&#xe024;" d="M 500.576,472.496C 494.768,477.376, 487.488,480, 480.016,480c-1.84,0-3.712-0.16-5.568-0.496l-272.032-48
	C 187.12,428.816, 175.984,415.536, 175.984,400l0-32 l0-16 l0-226.72 C 159.744,137.056, 138.672,144, 115.28,144c-13.6,0-27.2-2.256-40.464-6.656
	C 44.448,127.216, 20.096,106.912, 8,81.6c-9.344-19.568-10.544-40.848-3.424-59.936C 16.752-10.944, 51.344-32, 92.704-32
	c 13.6,0, 27.2,2.224, 40.448,6.656c 30.352,10.096, 54.704,30.4, 66.8,55.68c 5.2,10.912, 7.632,22.336, 7.728,33.664l 0.288,0 L 207.968,320 
	c 1.84,0, 3.712,0.16, 5.568,0.464l 266.48,47.024L 480.016,173.28 C 463.76,185.056, 442.704,192, 419.296,192c-13.6,0-27.216-2.256-40.464-6.656
	c-30.368-10.128-54.72-30.432-66.784-55.744c-9.344-19.568-10.56-40.848-3.44-59.936C 320.8,37.056, 355.36,16, 396.736,16
	c 13.6,0, 27.216,2.224, 40.464,6.656c 30.336,10.096, 54.688,30.4, 66.784,55.68c 5.216,10.912, 7.632,22.336, 7.744,33.664l 0.288,0 L 512.016,400 L 512.016,416 L 512.016,448 
	C 512.016,457.44, 507.824,466.432, 500.576,472.496z M 123.008,4.992c-38.336-12.784-77.968-0.288-88.464,27.84c-10.528,28.16, 12.016,61.344, 50.336,74.128
	c 38.336,12.784, 77.968,0.32, 88.464-27.84C 183.888,50.976, 161.344,17.776, 123.008,4.992z M 426.448,52.992c-38.368-12.784-78-0.288-88.496,27.84
	c-10.528,28.16, 12.032,61.344, 50.336,74.128c 38.368,12.784, 78,0.32, 88.496-27.84C 487.328,98.976, 464.8,65.776, 426.448,52.992z M 479.36,400
	L 207.328,352L 207.328,368 L 207.328,400 L 479.36,448l0-32 L 479.36,400 z" />
<glyph unicode="&#xe02d;" d="M 400,480c-32.848,0-58.656-22.56-77.184-57.376l-0.336,0.192C 295.568,370.128, 255.504,336, 211.616,336l-10.608,0 
	L 130.496,336 L 64,336 c-35.888,0-64-35.152-64-80c0-44.88, 28.112-80, 64-80c 17.648-0.064, 31.92-14.336, 31.92-32l0-144 c0-17.68, 14.336-32, 32-32l 64,0 c 17.664,0, 32,14.32, 32,32
	l0,16 c0,16-16,23.152-16,32l0,112 c0,0.368, 0.256,0.624, 0.288,0.992c 0.16,2.288, 0.784,4.4, 1.792,6.32c 0.288,0.528, 0.592,0.944, 0.944,1.408
	c 1.28,1.904, 2.896,3.472, 4.864,4.688c 0.096,0.064, 0.128,0.16, 0.224,0.224c 0.064,0, 0.112,0.064, 0.176,0.064
	c 1.28,0.72, 2.816,0.88, 4.256,1.28c 40.384-4.288, 76.944-36.88, 102.032-85.968l 0.4,0.192C 341.44,54.496, 367.184,32, 400,32
	c 73.536,0, 112,112.688, 112,224S 473.536,480, 400,480z M 320,256c0,16.592, 0.976,32.624, 2.624,48L 368,304 c 17.664,0, 32-21.504, 32-48c0-26.528-14.336-48-32-48l-45.376,0 
	C 320.976,223.376, 320,239.376, 320,256z M 32,256c0,26.496, 14.336,48, 32,48l 66.496,0 L 144,304 l 32.224,0 C 166.304,292.336, 160,275.408, 160,256
	c0-19.44, 6.304-36.368, 16.224-48L 144,208 L 64,208 C 46.336,208, 32,229.472, 32,256z M 191.92,0l-64,0 l0,144 c0,11.664-3.12,22.56-8.592,32l 11.168,0 l0-0.192 l 48.128,0 
	c-1.712-4.976-2.704-10.256-2.704-15.808l0-112 c0-15.408, 8.608-25.664, 13.744-31.776c 0.704-0.848, 1.536-1.712, 2.256-2.656L 191.92,0 z M 211.616,207.808
	L 208,207.808 L 208,208 c-17.664,0-32,21.472-32,48c0,26.496, 14.336,48, 32,48l 3.616,0 c 30.176,0, 58.432,11.872, 83.296,32.288C 290.336,310.528, 288,283.248, 288,256
	c0-27.344, 2.336-54.72, 6.944-80.496C 270.064,195.936, 241.792,207.808, 211.616,207.808z M 400,64c-32.288,0-60,45.936-72.656,112L 368,176 
	c 35.872,0, 64,35.12, 64,80c0,44.848-28.128,80-64,80l-40.656,0 C 340,402.032, 367.712,448, 400,448c 44.192,0, 80-85.968, 80-192S 444.192,64, 400,64z" />
<glyph unicode="&#xe025;" d="M 512,352c0,22.496-15.312,41.728-37.216,46.784L 266.576,446.832C 263.088,447.616, 259.536,448, 256,448
		c-3.536,0-7.088-0.384-10.8-1.216l-207.984-48C 15.296,393.728,0,374.496,0,352s 15.312-41.728, 37.2-46.784L 80,295.344L 80,160 c0-42.464, 48.608-80, 176-80
		s 176,37.536, 176,80l0,135.344 l 42.784,9.872C 496.688,310.272, 512,329.504, 512,352z M 400,160c0-17.68-48-48-144-48c-96,0-144,30.32-144,48l0,127.952 l 133.408-30.784
		C 248.896,256.384, 252.464,256, 256,256c 3.536,0, 7.104,0.384, 10.784,1.216L 400,287.952L 400,160 z M 259.6,288.4C 258.4,288.144, 257.2,288, 256,288
		s-2.416,0.144-3.6,0.4l-208,48C 37.136,338.080, 32,344.544, 32,352s 5.136,13.92, 12.4,15.6l 208,48C 253.584,415.856, 254.784,416, 256,416
		s 2.416-0.144, 3.6-0.4l 208-48C 474.848,365.92, 480,359.456, 480,352s-5.152-13.92-12.4-15.6L 259.6,288.4zM 464,272 C 464,280.848 471.152,288 480,288 C 488.832,288 496,280.848 496,272 L 496,128 C 496,119.152 488.832,112 480,112 C 471.152,112 464,119.152 464,128 L 464,272 ZM 480,96 C 497.664,96 512,49.664 512,32 C 512,14.336 497.664,0 480,0 C 462.32,0 448,14.336 448,32 C 448,49.664 462.32,96 480,96 Z" />
<glyph unicode="&#xe026;" d="M 330.912,420.288C 323.344,427.84, 313.312,432, 302.624,432s-20.72-4.16-28.32-11.728l-22.56-22.592
		C 244.176,390.128, 240,380.080, 240,369.376c0-7.536, 2.064-14.752, 5.936-21.008L 28.704,261.344c-14.528-6.384-24.944-19.488-27.872-35.024
		c-2.96-15.632, 2-31.664, 13.344-42.992l 203.52-201.28c 8.768-8.768, 20.416-13.744, 32.72-14.032C 250.704-32, 251.376-32, 251.664-32
		c 3.232,0, 6.512,0.336, 9.76,0.992c 15.904,3.296, 28.928,14.288, 34.832,29.248l 85.472,214.016c 6.432-4.24, 14-6.512, 21.872-6.512
		c 10.72,0, 20.752,4.176, 28.288,11.728L 454.4,240c 7.632,7.584, 11.808,17.648, 11.808,28.368s-4.192,20.8-11.712,28.288L 330.912,420.288z
		 M 266.544,10.128c-1.984-5.008-6.352-8.704-11.632-9.792c-1.216-0.256-2.448-0.352-3.664-0.336c-4.064,0.096-7.984,1.728-10.912,4.672
		L 36.688,206.080c-3.744,3.728-5.392,9.072-4.4,14.288c 0.976,5.184, 4.464,9.568, 9.312,11.68l 99.472,39.84
		c 67.024-22.288, 134.064-0.816, 201.12-72.352L 266.544,10.128z M 431.872,262.72l-22.624-22.608c-3.12-3.136-8.192-3.136-11.312,0l-28.288,28.272
		l-22.912-57.424l 1.904,4.848c-48.16,48.080-97.104,54.144-141.264,59.568c-14.192,1.744-27.952,3.568-41.472,6.48l 135.856,54.416l-27.44,27.44
		c-3.12,3.12-3.12,8.192,0,11.312l 22.624,22.64c 3.12,3.12, 8.192,3.12, 11.312,0l 123.6-123.632
		C 435.024,270.912, 435.024,265.84, 431.872,262.72zM 264,144c 22.048,0, 40,17.936, 40,40S 286.064,224, 264,224c-22.064,0-40-17.936-40-40S 241.952,144, 264,144z
		 M 264,208c 13.248,0, 24-10.752, 24-24S 277.248,160, 264,160c-13.264,0-24,10.752-24,24S 250.736,208, 264,208zM 472,480C 449.936,480, 432,462.064, 432,440S 449.936,400, 472,400S 512,417.936, 512,440S 494.064,480, 472,480z M 472,416
		C 458.752,416, 448,426.752, 448,440S 458.752,464, 472,464S 496,453.248, 496,440S 485.248,416, 472,416zM 128,208c0-17.648, 14.352-32, 32-32s 32,14.352, 32,32s-14.352,32-32,32S 128,225.648, 128,208z M 160,224c 8.832,0, 16-7.152, 16-16
		s-7.168-16-16-16s-16,7.152-16,16S 151.168,224, 160,224zM 192,112A16,16 1260 1 0 224,112A16,16 1260 1 0 192,112zM 448,352A16,16 1260 1 0 480,352A16,16 1260 1 0 448,352z" />
<glyph unicode="&#xe027;" d="M 472,144l-43.056,0 c-0.72,3.824-1.6,7.568-2.56,11.296l 76.784,38.384c 7.904,3.952, 11.088,13.568, 7.152,21.472
		c-3.968,7.904-13.536,11.072-21.472,7.152l-73.248-36.608C 387.664,245.984, 326.72,288, 256,288c-86.112,0-157.84-62.208-172.944-144L 40,144 
		C 17.952,144,0,126.064,0,104c0-7.84, 2.88-15.408, 8.080-21.264L 64,19.824L 64,8 C 64-14.064, 81.952-32, 104-32l 304,0 c 22.064,0, 40,17.936, 40,40
		l0,11.824 l 55.904,62.912C 509.12,88.592, 512,96.16, 512,104C 512,126.064, 494.064,144, 472,144z M 412.784,144l-8.992,0 l 7.968,4
		C 412.064,146.656, 412.496,145.36, 412.784,144z M 256,272c 64.464,0, 120-38.4, 145.312-93.456l-14.256-7.12C 364.4,221.264, 314.32,256, 256,256
		c-68.512,0-125.744-47.888-140.32-112L 99.232,144 C 114.096,216.944, 178.736,272, 256,272z M 329.216,144c-12.368,28.208-40.496,48-73.216,48s-60.832-19.792-73.216-48
		L 165.6,144 c 13.216,37.216, 48.688,64, 90.4,64c 39.44,0, 73.408-23.936, 88.128-58.032L 332.224,144L 329.216,144 z M 256,160c-14.128,0-26.72-6.256-35.52-16l-19.584,0 
		c 11.104,19.024, 31.52,32, 55.104,32c 23.568,0, 44-12.976, 55.088-32l-19.6,0 C 282.72,153.744, 270.128,160, 256,160z M 256,224
		c-50.64,0-93.472-33.792-107.28-80L 132.208,144 c 14.272,55.104, 64.272,96, 123.792,96c 51.936,0, 96.688-31.168, 116.72-75.744l-14.288-7.136
		C 341.024,196.432, 301.68,224, 256,224z M 416,32l0-24 c0-4.416-3.6-8-8-8l-304,0 C 99.584,0, 96,3.584, 96,8L 96,32 l-64,72
		C 32,108.416, 35.584,112, 40,112L 80,112 l 16,0 l 16,0 l 16,0 l 16,0 l 16,0 l 16,0 l 16,0 l 16,0 l 96,0 l 16,0 l 16,0 l 16,0 l 16,0 l 16,0 l 16,0 l 16,0 l 16,0 l 40,0 c 4.4,0, 8-3.584, 8-8L 416,32zM 127.632,292.608 C 127.52,292.832 127.44,293.040 127.344,293.28 C 119.040,313.328 127.296,332.992 134.752,350.736 C 141.808,367.568 148.064,382.48 141.6,397.024 C 141.568,397.088 141.552,397.152 141.52,397.216 C 141.504,397.264 141.488,397.312 141.472,397.36 C 141.456,397.392 141.456,397.424 141.456,397.456 C 141.136,398.304 140.944,399.2 140.944,400.16 C 140.944,404.48 144.448,408 148.784,408 C 152.112,408 154.944,405.92 156.080,402.992 C 165.008,382.656 156.896,362.656 149.328,344.64 C 142.32,327.968 136.624,312.48 142.624,298.368 C 142.656,298.256 142.656,298.16 142.624,298.048 C 142.8,297.408 142.912,296.736 142.912,296.048 C 142.912,291.616 139.312,288 134.88,288 C 131.776,288 129.12,289.76 127.792,292.32 C 127.776,292.32 127.76,292.32 127.76,292.32 C 127.712,292.416 127.68,292.512 127.632,292.608 ZM 322.464,294.944 C 322.368,295.152 322.288,295.376 322.208,295.584 C 313.904,315.632 322.144,335.312 329.584,353.056 C 336.656,369.888 342.896,384.8 336.432,399.344 C 336.432,399.408 336.4,399.472 336.368,399.536 C 336.336,399.584 336.336,399.632 336.304,399.68 C 336.304,399.712 336.304,399.744 336.304,399.776 C 336,400.624 335.776,401.52 335.776,402.48 C 335.776,406.8 339.296,410.32 343.616,410.32 C 346.96,410.32 349.776,408.256 350.928,405.312 C 359.856,384.976 351.744,364.976 344.176,346.96 C 337.168,330.288 331.488,314.8 337.456,300.688 C 337.52,300.576 337.52,300.48 337.488,300.368 C 337.648,299.728 337.776,299.056 337.776,298.368 C 337.776,293.936 334.144,290.32 329.712,290.32 C 326.624,290.32 323.968,292.096 322.624,294.656 L 322.592,294.656 C 322.56,294.752 322.528,294.848 322.464,294.944 ZM 240.304,364.608 C 240.192,364.832 240.112,365.040 240,365.264 C 231.68,385.312 239.936,404.992 247.392,422.736 C 254.448,439.568 260.704,454.48 254.24,469.024 C 254.224,469.088 254.192,469.152 254.176,469.216 C 254.16,469.264 254.144,469.312 254.128,469.36 C 254.112,469.392 254.112,469.424 254.112,469.456 C 253.792,470.304 253.6,471.2 253.6,472.16 C 253.6,476.48 257.12,480 261.44,480 C 264.784,480 267.6,477.92 268.752,474.976 C 277.68,454.64 269.568,434.64 262,416.624 C 254.992,399.952 249.296,384.464 255.296,370.352 C 255.328,370.24 255.328,370.144 255.296,370.032 C 255.472,369.392 255.584,368.72 255.584,368.032 C 255.584,363.6 251.984,359.984 247.552,359.984 C 244.464,359.984 241.808,361.76 240.464,364.32 C 240.448,364.32 240.432,364.32 240.432,364.32 C 240.384,364.416 240.352,364.512 240.304,364.608 Z" />
<glyph unicode="&#xe028;" d="M 500,376.992l-80,64C 414.32,445.536, 407.248,448, 400,448L 112,448 
		C 104.736,448, 97.68,445.536, 92,440.992l-80-64C 1.536,368.608-2.592,354.592, 1.648,341.872l 32-96c 3.152-9.456, 10.544-16.912, 19.984-20.144
		C 56.992,224.576, 60.512,224, 64,224c 5.568,0, 11.088,1.456, 16,4.288L 80,32 c0-17.664, 14.336-32, 32-32l 288,0 c 17.664,0, 32,14.336, 32,32L 432,228.288 
		C 436.912,225.456, 442.432,224, 448,224c 3.504,0, 7.008,0.576, 10.368,1.728c 9.44,3.232, 16.816,10.688, 19.968,20.144l 32,96
		C 514.592,354.592, 510.464,368.608, 500,376.992z M 316.064,416C 307.216,397.424, 283.776,384, 256,384c-27.776,0-51.232,13.424-60.064,32L 316.064,416 z M 448,256l-48,32
		l0-256 L 112,32 L 112,288 l-48-32L 32,352l 80,64l 66.832,0 C 187.744,388.448, 218.768,368, 256,368c 37.216,0, 68.256,20.448, 77.152,48L 400,416 l 80-64L 448,256z" />
<glyph unicode="&#xe029;" d="M 352,336c-0.992-42.8-33.12-78.944-33.12-78.944C 318.88,336.672, 256,400, 256,400s-0.848-47.392-32.688-95.168
			C 191.472,416.304, 95.92,480, 95.92,480C 143.696,304.832, 80,241.12, 80,113.728C 80,38.992, 143.264-32, 240-32c 143.312,0, 171.024,52.608, 185.84,111.888
			C 446.256,161.504, 415.68,256.384, 352,336z M 394.816,87.664C 384.528,46.56, 372.912,0, 240,0c-80.128,0-128,57.824-128,113.728
			c0,42.816, 7.808,77.968, 16.064,115.184c 10.496,47.184, 21.248,95.488, 16.592,159.376c 49.344-68.304, 66.912-158.8, 66.912-158.8
			s 45.936,64.496, 58.288,94.448C 279.312,304.688, 288,240, 288,176c0,0, 42.496,35.008, 74.368,87.648C 395.936,203.456, 408.032,140.528, 394.816,87.664zM 358.912,211.28 L 361.888,194.72 C 368.544,157.632 364.816,113.792 352.416,83.008 C 351.168,79.888 348.16,78 345.008,78 C 344,78 342.976,78.192 342,78.576 C 337.904,80.224 335.904,84.88 337.568,88.976 C 346.912,112.16 350.848,144.8 348.352,174.624 C 332.288,156.672 312.048,137.968 268.8,117.424 L 260.704,113.6 L 257.792,122.048 C 252,138.848 246.16,155.824 243.632,179.488 C 234.976,165.84 227.072,153.68 213.792,135.6 L 205.664,124.528 L 200.032,137.072 C 186.256,167.872 175.76,191.92 167.44,213.072 C 159.744,188.352 154,159.76 154,102.016 C 154,97.6 150.4,94.016 146,94.016 C 141.568,94.016 138,97.6 138,102.016 C 138,177.36 148,206.384 158.56,237.12 L 166.88,261.28 L 174.544,239.68 C 182.784,216.464 193.632,190.88 208.976,156.288 C 219.088,170.576 225.872,181.328 234.064,194.304 L 258.352,232.352 L 258.352,205.008 C 258.352,174.224 263.888,154.112 269.984,135.84 C 312.528,157.248 328.464,175.872 345.312,195.52 L 358.912,211.28 Z" />
<glyph unicode="&#xe02a;" d="M 469.808,405.808 C 526.064,349.584 526.064,258.4 469.808,202.176 L 294.336,26.688 C 288.080,20.416 277.968,20.416 271.712,26.688 C 265.424,32.944 265.424,43.040 271.712,49.312 L 444.928,222.544 C 488.672,266.288 488.672,337.168 444.896,380.928 C 401.216,424.672 330.272,424.672 286.528,380.928 L 55.376,152.496 C 24.128,121.264 24.128,70.608 55.376,39.376 C 86.624,8.128 137.248,8.128 168.496,39.376 L 401.936,270.048 C 420.656,288.768 420.656,319.216 401.936,337.936 C 383.216,356.64 352.784,356.64 334.064,337.936 L 158.56,162.432 C 152.304,156.176 142.192,156.176 135.936,162.432 C 129.68,168.704 129.68,178.8 135.936,185.072 L 311.424,360.56 C 342.64,391.792 393.296,391.792 424.544,360.56 C 455.792,329.312 455.792,278.672 424.544,247.424 L 191.104,16.736 C 147.456-26.928 76.4-26.928 32.736,16.736 C -10.928,60.4 -10.928,131.472 32.736,175.136 L 266.176,405.808 C 322.4,462.064 413.584,462.064 469.808,405.808 Z" />
<glyph unicode="&#xe02b;" d="M 502.4,300.8l-48,63.968c-1.872,2.512-4.096,4.688-6.4,6.768L 448,448 c0,17.664-14.336,32-32,32L 96,480 
	C 78.32,480, 64,465.664, 64,448l0-76.48 C 61.696,369.456, 59.472,367.296, 57.6,364.8l-47.984-63.984C 3.408,292.56,0,282.336,0,272l0-16 c0-26.464, 21.536-48, 48-48l0,0 l0-208 
	c0-17.664, 14.336-32, 32-32l 352,0 c 17.664,0, 32,14.336, 32,32L 464,208 l0,0c 26.464,0, 48,21.536, 48,48l0,16 C 512,282.336, 508.592,292.56, 502.4,300.8z M 416,448l0-64 L 96,384 l0,0 L 96,448 L 416,448 z
	 M 163.088,240L 96.064,240 l 64,112l 35.024,0 L 163.088,240z M 211.744,352L 248,352 l0-112 l-68.256,0 L 211.744,352z M 264,352l 36.256,0 l 32-112L 264,240 L 264,352 z M 316.88,352l 35.024,0 l 64-112l-67.024,0 
	L 316.88,352z M 32,256l0,16 c0,3.472, 1.12,6.832, 3.2,9.6l 48,64C 86.224,349.632, 90.96,352, 96,352l 45.632,0 l-64-112L 48,240 C 39.168,240, 32,247.152, 32,256z M 320,0l-120,0 L 200,160 
	L 320,160 L 320,0 z M 432,0l-96,0 L 336,160 c0,8.848-7.184,16-16,16l-120,0 c-8.832,0-16-7.152-16-16l0-160 L 80,0 L 80,208 l 352,0 L 432,0 z M 480,256c0-8.848-7.152-16-16-16l-29.664,0 l-64,112L 416,352 l0,0
	c 5.024,0, 9.776-2.368, 12.784-6.4l 48-64C 478.88,278.832, 480,275.472, 480,272L 480,256 z" />
<glyph unicode="&#xe02c;" d="M 469.344,432L 400,432 L 400,464 c0,8.848-7.152,16-16,16s-16-7.152-16-16l0-32 l-96,0 L 272,464 c0,8.848-7.168,16-16,16s-16-7.152-16-16l0-32 L 144,432 L 144,464 
		c0,8.848-7.168,16-16,16S 112,472.848, 112,464l0-32 L 42.672,432 C 19.104,432,0,412.912,0,389.344l0-378.672 C0-12.896, 19.104-32, 42.672-32l 426.672,0 
		C 492.912-32, 512-12.896, 512,10.672L 512,389.344 C 512,412.912, 492.912,432, 469.344,432z M 480,10.672C 480,4.784, 475.216,0, 469.344,0L 42.672,0 
		C 36.784,0, 32,4.784, 32,10.672L 32,389.344 C 32,395.216, 36.784,400, 42.672,400L 112,400 l0-32 c0-8.848, 7.168-16, 16-16s 16,7.152, 16,16L 144,400 l 96,0 l0-32 c0-8.848, 7.168-16, 16-16
		s 16,7.152, 16,16L 272,400 l 96,0 l0-32 c0-8.848, 7.152-16, 16-16s 16,7.152, 16,16L 400,400 l 69.344,0 C 475.216,400, 480,395.216, 480,389.344L 480,10.672 zM 112,288L 176,288L 176,240L 112,240zM 112,208L 176,208L 176,160L 112,160zM 112,128L 176,128L 176,80L 112,80zM 224,128L 288,128L 288,80L 224,80zM 224,208L 288,208L 288,160L 224,160zM 224,288L 288,288L 288,240L 224,240zM 336,128L 400,128L 400,80L 336,80zM 336,208L 400,208L 400,160L 336,160zM 336,288L 400,288L 400,240L 336,240z" />
<glyph unicode="&#xe030;" d="M 256,160A32,32 1260 1 0 320,160A32,32 1260 1 0 256,160zM 464.016,272C 464,272, 464,272, 464.016,272L 464,368L 464,376 L 464,416 c0,26.512-21.504,48-48,48l-64,0 L 88,464 C 39.472,464,0,424.512,0,376l0-320 
		C0,7.488, 39.472-32, 88-32l 288,0 c 48.512,0, 88,39.488, 88,88L 464,80 c0,0,0,0, 0.016,0C 527.984,128.016, 527.984,223.984, 464.016,272z M 88,432L 352,432 l 64,0 
		c 8.816,0, 16-7.168, 16-16l0-40 L 432,368 l0-50.944 C 426.976,318.848, 421.632,320, 416,320l-0.016,0 L 415.984,336 L 415.984,368 L 415.984,400 c0,8.848-7.168,16-16,16l-336,0 c-8.832,0-16-7.152-16-16l0-32 
		l0-31.088 C 38.112,347.008, 32,360.768, 32,376C 32,406.928, 57.056,432, 88,432z M 399.984,384l-336,0 L 63.984,400 l 336,0 L 399.984,384 z M 399.984,368l0-16 l-336,0 L 63.984,368 L 399.984,368 z M 399.984,336l0-16 L 352,320 L 88,320 
		c-8.64,0-16.704,2.112-24,5.6L 64,336 L 399.984,336 z M 432,56c0-30.928-25.072-56-56-56l-288,0 C 57.056,0, 32,25.072, 32,56L 32,308.176 
		C 47.216,295.584, 66.736,288, 88,288L 352,288 l 64,0 c 8.816,0, 16-7.168, 16-16l0-32 l-144,0 c-44.192,0-80-35.808-80-80s 35.824-80, 80-80l 144,0 L 432,56 z M 452.432,112L 288,112 
		c-26.464,0-48,21.536-48,48s 21.536,48, 48,48l 144,0 c 9.872,0.128, 19.664,4.912, 25.632,12.864c 1.664,2.24, 2.96,4.752, 4,7.376
		c 0.144,0.352, 0.4,0.624, 0.528,0.992C 473.664,214.144, 480,195.648, 480,176C 480,151.392, 470.064,128.56, 452.432,112z" />
<glyph unicode="&#xe031;" d="M 351.216,461.6c-131.232,52.544-280.24-11.232-332.8-142.48
		c-52.576-131.264, 11.232-280.288, 142.48-332.832c 131.248-52.56, 280.256,11.232, 332.816,142.48C 546.288,260.032, 482.464,409.024, 351.216,461.6z
		 M 172.8,15.984C 58.144,61.904, 2.208,192.528, 48.112,307.2c 45.92,114.656, 176.56,170.608, 291.232,124.672c 114.656-45.904, 170.592-176.544, 124.688-291.2
		C 418.096,26, 287.472-29.92, 172.8,15.984zM 267.984,253.648c-16.4,6.576-35.040-1.408-41.616-17.808
		s 1.408-35.024, 17.792-41.6c 16.4-6.576, 35.056,1.408, 41.616,17.792C 292.336,228.432, 284.368,247.056, 267.984,253.648z M 250.112,209.072
		c-8.192,3.296-12.176,12.608-8.912,20.816c 3.296,8.192, 12.624,12.176, 20.816,8.912c 8.176-3.28, 12.16-12.608, 8.896-20.816
		C 267.632,209.792, 258.304,205.808, 250.112,209.072zM 291.744,313.040c-49.216,19.712-105.088-4.224-124.8-53.424
		c-19.712-49.216, 4.224-105.088, 53.424-124.8c 49.216-19.712, 105.088,4.208, 124.8,53.424S 340.976,293.344, 291.744,313.040z M 232.288,164.528
		c-32.768,13.104-48.736,50.448-35.632,83.2c 13.12,32.752, 50.432,48.736, 83.184,35.632c 32.784-13.12, 48.752-50.464, 35.664-83.216
		C 302.368,167.392, 265.040,151.392, 232.288,164.528zM 374.912,176.352 L 374.88,176.352 C 361.808,143.728 336.752,119.456 306.784,106.496 C 306.672,106.448 306.608,106.32 306.448,106.256 C 302.384,104.528 297.696,106.4 295.952,110.48 C 294.208,114.528 296.112,119.232 300.144,120.96 C 326.48,132.24 348.544,153.568 360.048,182.304 L 360.048,182.288 C 361.696,186.4 366.352,188.4 370.448,186.736 C 374.544,185.104 376.544,180.448 374.912,176.352 ZM 429.84,162.976 C 433.936,161.328 435.936,156.672 434.304,152.576 C 414.704,103.648 377.088,67.216 332.144,47.808 C 331.952,47.728 331.808,47.552 331.616,47.456 C 327.552,45.728 322.864,47.584 321.12,51.664 C 319.376,55.728 321.28,60.432 325.312,62.16 C 366.72,79.888 401.376,113.408 419.44,158.528 C 421.088,162.624 425.744,164.624 429.84,162.976 ZM 400.128,174.864 C 404.224,173.216 406.224,168.56 404.592,164.464 C 388.256,123.68 356.912,93.344 319.472,77.168 C 319.296,77.072 319.2,76.928 319.040,76.848 C 314.976,75.12 310.288,76.992 308.544,81.056 C 306.8,85.12 308.704,89.824 312.768,91.568 L 312.736,91.568 C 346.64,106.080 374.976,133.488 389.728,170.416 C 391.376,174.528 396.032,176.512 400.128,174.864 ZM 216.208,337.408 C 217.952,333.328 216.064,328.64 212,326.88 C 185.664,315.616 163.6,294.272 152.112,265.568 L 152.096,265.568 C 150.464,261.472 145.808,259.472 141.696,261.12 C 137.6,262.768 135.6,267.408 137.248,271.52 L 137.264,271.52 C 150.32,304.128 175.392,328.416 205.36,341.376 C 205.472,341.424 205.552,341.552 205.696,341.6 C 209.76,343.344 214.464,341.488 216.208,337.408 ZM 191.008,396.24 C 192.752,392.176 190.864,387.488 186.816,385.728 C 145.408,368 110.768,334.48 92.688,289.376 C 91.040,285.264 86.384,283.28 82.288,284.928 C 78.176,286.56 76.176,291.216 77.84,295.344 C 97.44,344.272 135.040,380.688 180,400.112 C 180.16,400.192 180.304,400.368 180.496,400.448 C 184.56,402.176 189.264,400.304 191.008,396.24 ZM 199.392,356.336 L 199.392,356.288 C 165.52,341.792 137.168,314.368 122.4,277.44 C 120.752,273.328 116.096,271.36 112,272.992 C 107.92,274.656 105.904,279.296 107.568,283.408 C 123.888,324.176 155.232,354.544 192.688,370.736 C 192.848,370.8 192.944,370.96 193.104,371.024 C 197.168,372.768 201.872,370.88 203.616,366.832 C 205.36,362.752 203.456,358.064 199.408,356.336 Z" />
<glyph unicode="&#xe032;" d="M 397.312,296.88C 394.336,301.328, 389.344,304, 384,304l-16,0 c-8.848,0-16-7.152-16-16l0-96 c0-8.848, 7.152-16, 16-16l 64,0 
		c 8.848,0, 16,7.152, 16,16l0,24 c0,3.152-0.944,6.256-2.688,8.88L 397.312,296.88z M 432,192l-64,0 l0,96 l 16,0 l 48-72L 432,192 zM 503.936,234.624l-64,96C 431.008,344.016, 416.064,352, 400,352l-64,0 L 336,384 c0,26.464-21.536,48-48,48L 48,432 C 21.536,432,0,410.464,0,384l0-176 
		c0-26.464, 21.536-48, 48-48l0,0 l0-48 c0-26.464, 21.536-48, 48-48l 18.272,0 c 7.152-27.536, 32-48, 61.744-48c 29.712,0, 54.56,20.464, 61.712,48l 84.512,0 
		c 7.152-27.536, 32-48, 61.744-48c 29.712,0, 54.56,20.464, 61.712,48L 464,64 c 26.464,0, 48,21.536, 48,48l0,96 C 512,217.504, 509.216,226.72, 503.936,234.624z M 48,192
		c-8.832,0-16,7.152-16,16L 32,384 c0,8.848, 7.168,16, 16,16l 240,0 c 8.848,0, 16-7.152, 16-16l0-32 l0-32 l0-112 c0-8.848-7.152-16-16-16L 48,192 z M 176.016,48
		c-17.68,0-32,14.336-32,32s 14.32,32, 32,32c 17.664,0, 32-14.336, 32-32S 193.664,48, 176.016,48z M 384,48c-17.68,0-32,14.336-32,32s 14.32,32, 32,32
		c 17.664,0, 32-14.336, 32-32S 401.664,48, 384,48z M 480,112c0-8.848-7.152-16-16-16l-18.288,0 c-7.152,27.536-32,48-61.712,48c-29.744,0-54.592-20.464-61.744-48
		l-84.512,0 c-7.152,27.536-32,48-61.712,48c-29.744,0-54.592-20.464-61.744-48L 96,96 c-8.832,0-16,7.152-16,16l0,48 l 208,0 c 26.464,0, 48,21.536, 48,48l0,112 l 64,0 
		c 5.344,0, 10.336-2.672, 13.312-7.12l 64-96C 479.056,214.256, 480,211.152, 480,208L 480,112 z" />
<glyph unicode="&#xe033;" d="M 248,480C 111.024,480,0,368.976,0,232S 111.024-16, 248-16S 496,95.024, 496,232S 384.976,480, 248,480z M 463.6,240
	l-95.936,0 c-0.88,35.44-7.184,69.296-18.368,100.288c 21.6,9.008, 41.568,20.992, 59.776,35.152C 441.44,339.104, 461.68,291.92, 463.6,240z
	 M 239.152,16.448c-26.592,22.144-48.896,50.896-65.216,84.288c 20.944,6.544, 43.136,10.128, 66.064,10.864l0-95.184 
	C 239.712,16.416, 239.44,16.432, 239.152,16.448z M 256.816,447.552c 30.176-25.12, 54.8-58.768, 71.456-98.016c-22.816-7.792-47.056-12.32-72.288-13.12
	L 255.984,447.6 C 256.288,447.584, 256.544,447.568, 256.816,447.552z M 283.472,444.832c 44.16-7.344, 83.776-27.968, 114.624-57.824
	c-16.752-12.848-35.056-23.728-54.848-31.968C 328.688,389.552, 308.256,420.064, 283.472,444.832z M 240,447.6l0-111.184 
	c-25.232,0.816-49.488,5.328-72.288,13.12c 16.656,39.248, 41.28,72.896, 71.456,98.016C 239.456,447.568, 239.712,447.584, 240,447.6z M 152.736,355.024
	c-19.76,8.24-38.080,19.12-54.832,31.968c 30.832,29.856, 70.464,50.48, 114.624,57.824C 187.728,420.064, 167.312,389.552, 152.736,355.024z M 161.68,334.784
	C 186.352,326.224, 212.64,321.232, 240,320.4L 240,240 L 144.336,240 C 145.2,273.504, 151.136,305.52, 161.68,334.784z M 240,224l0-96.4 
	c-25.232-0.768-49.632-4.896-72.624-12.304C 153.52,148.288, 145.344,185.040, 144.336,224L 240,224 z M 212.528,19.168
	c-39.568,6.576-75.504,23.808-104.72,48.832c 15.76,10.928, 32.8,20.176, 51.008,27.2C 172.768,66.272, 191.024,40.592, 212.528,19.168z M 256,16.4
	l0,95.184 c 22.912-0.736, 45.12-4.32, 66.064-10.864c-16.336-33.392-38.624-62.144-65.216-84.288C 256.576,16.432, 256.288,16.416, 256,16.4z
	 M 337.184,95.2c 18.192-7.024, 35.216-16.288, 51.008-27.2c-29.216-25.008-65.152-42.256-104.72-48.832C 304.976,40.592, 323.216,66.272, 337.184,95.2z
	 M 328.624,115.296c-23.008,7.408-47.408,11.536-72.624,12.304L 256,224 l 95.664,0 C 350.656,185.040, 342.464,148.288, 328.624,115.296z M 256,240L 256,320.4 
	c 27.344,0.832, 53.632,5.808, 78.32,14.368c 10.528-29.264, 16.464-61.28, 17.344-94.784L 256,239.984 z M 86.944,375.44C 105.152,361.28, 125.12,349.296, 146.704,340.288
	C 135.52,309.296, 129.216,275.44, 128.336,240L 32.4,240 C 34.32,291.92, 54.56,339.104, 86.944,375.44z M 32.4,224l 95.936,0 
	c 0.992-40.88, 9.536-79.488, 24.048-114.192c-20.272-7.904-39.168-18.432-56.608-30.896C 58.208,116.304, 34.496,167.424, 32.4,224z M 400.224,78.928
	c-17.44,12.448-36.336,22.992-56.624,30.896c 14.528,34.704, 23.056,73.312, 24.064,114.192l 95.936,0 C 461.504,167.424, 437.776,116.304, 400.224,78.928z" />
<glyph unicode="&#xe002;" d="M 377.37,44.749c 41.216,0 74.65,34.381 74.65,76.8s -33.434,76.8, -74.65,76.8c -74.624,0, -24.883,148.48 74.65,148.48l0,35.814 
		C 274.406,382.643, 204.8,44.749, 377.37,44.749z M 162.355,44.749c 41.216,0 74.65,34.381 74.65,76.8s -33.434,76.8, -74.65,76.8c -74.624,0, -24.883,148.48 74.65,148.48
		l0,35.814 C 59.366,382.643, -10.24,44.749, 162.355,44.749z"  />
<glyph unicode="&#xe009;" d="M 125.85,382.643c-41.216,0-74.65-34.381-74.65-76.8s 33.434-76.8, 74.65-76.8c 74.624,0, 24.883-148.48-74.65-148.48l0-35.814 
		C 228.813,44.749, 298.419,382.643, 125.85,382.643z M 340.864,382.643c-41.216,0-74.65-34.381-74.65-76.8s 33.434-76.8, 74.65-76.8c 74.624,0, 24.883-148.48-74.65-148.48
		l0-35.814 C 443.853,44.749, 513.459,382.643, 340.864,382.643z"  />
<glyph unicode="&#x20;" horiz-adv-x="256" />
</font>
</defs>
</svg>
